<?xml version="1.0" standalone="no"?>
<!DOCTYPE svg PUBLIC "-//W3C//DTD SVG 1.1//EN" "http://www.w3.org/Graphics/SVG/1.1/DTD/svg11.dtd" >
<svg xmlns="http://www.w3.org/2000/svg">
<metadata>Generated by IcoMoon</metadata>
<defs>
<font id="font_icons" horiz-adv-x="1024">
<font-face units-per-em="1024" ascent="960" descent="-64" />
<missing-glyph horiz-adv-x="1024" />
<glyph unicode="&#x20;" horiz-adv-x="512" d="" />
<glyph unicode="&#xe900;" glyph-name="bag" horiz-adv-x="863" d="M578.755 620.796h-399.89c-0.038 0-0.082 0-0.127 0-36.113 0-65.653-28.137-67.896-63.684l-0.010-0.197-38.009-552.883h717.694l-31.94 552.883c-2.252 35.744-31.793 63.88-67.906 63.88-0.045 0-0.089 0-0.134 0h-43.432v68.352h42.161c72.269-0.025 131.396-56.257 136.044-127.354l0.021-0.406 37.051-625.387h-862.383l42.8 626.026c4.825 71.432 63.859 127.572 136.046 127.76h332.196v138.62c-4.029 36.228-34.479 64.145-71.449 64.145-2.17 0-4.318-0.096-6.439-0.285l0.274 0.020c-1.847 0.169-3.995 0.265-6.165 0.265-36.97 0-67.421-27.917-71.42-63.82l-0.029-0.325v-71.865h-68.352v71.865c3.922 73.584 64.544 131.764 138.754 131.764 2.424 0 4.834-0.062 7.228-0.185l-0.336 0.014c2.058 0.109 4.468 0.171 6.893 0.171 74.21 0 134.832-58.181 138.739-131.417l0.015-0.348z" />
<glyph unicode="&#xe901;" glyph-name="chevron-down" d="M898.795 704.16l-386.795-387.114-386.795 387.114h-125.205l512-512 512 512h-125.205z" />
<glyph unicode="&#xe902;" glyph-name="chevron-left" horiz-adv-x="512" d="M512 61.205l-386.795 386.795 386.795 386.795v125.205l-512-512 512-512v125.205z" />
<glyph unicode="&#xe903;" glyph-name="chevron-right" horiz-adv-x="512" d="M0 834.795l386.795-386.795-386.795-386.795v-125.205l512 512-512 512v-125.205z" />
<glyph unicode="&#xe904;" glyph-name="chevron-up" d="M125.205 192.16l386.795 386.795 386.795-386.795h125.205l-512 512-512-512h125.205z" />
<glyph unicode="&#xe905;" glyph-name="delivery" d="M1001.323 461.415l-76.976 142.453c-14.839 24.175-40.482 40.468-70.036 42.15l-0.233 0.011h-164.492c-6.972-0.482-13.392-2.436-19.086-5.551l0.242 0.121v77.295c-0.181 26.322-21.561 47.591-47.909 47.591 0 0-0.001 0-0.001 0h-501.14c-26.284 0-47.591-21.307-47.591-47.591v0-284.267h-12.137c-0.642 0.102-1.383 0.16-2.137 0.16-7.938 0-14.373-6.435-14.373-14.373s6.435-14.373 14.373-14.373c0.754 0 1.495 0.058 2.217 0.17l-0.081-0.010h12.137v-43.119h-59.728c-0.642 0.102-1.383 0.16-2.137 0.16-7.938 0-14.373-6.435-14.373-14.373s6.435-14.373 14.373-14.373c0.754 0 1.495 0.058 2.217 0.17l-0.081-0.010h59.728v-69.31c0 0 0-0.001 0-0.001 0-26.348 21.268-47.728 47.574-47.909h54.954c0 4.152 0 7.985 0 12.137-0.158 2.482-0.248 5.383-0.248 8.304s0.090 5.822 0.267 8.699l-0.019-0.395h-54.937c-10.584 0-19.164 8.58-19.164 19.164v0 69.31h102.847c6.966 1.076 12.236 7.029 12.236 14.213s-5.271 13.137-12.156 14.203l-0.081 0.010h-102.847v43.119h150.438c0.642-0.102 1.383-0.16 2.137-0.16 7.938 0 14.373 6.435 14.373 14.373s-6.435 14.373-14.373 14.373c-0.754 0-1.495-0.058-2.217-0.17l0.081 0.010h-150.438v284.267c0.178 10.271 8.546 18.528 18.842 18.528 0.113 0 0.226-0.001 0.339-0.003h501.123c0.095 0.002 0.207 0.003 0.319 0.003 10.408 0 18.845-8.437 18.845-18.845 0-0.001 0-0.002 0-0.003v0-453.55c0.002-0.096 0.003-0.209 0.003-0.322 0-10.408-8.437-18.845-18.845-18.845-0.113 0-0.226 0.001-0.339 0.003h-198.65c1.058-4.913 1.747-10.628 1.913-16.473l0.003-0.135c0-4.152 0-7.985 0-12.137h198.029c26.46 0 47.91 21.45 47.91 47.91v0 334.413c-0.002 0.095-0.003 0.207-0.003 0.319 0 10.408 8.437 18.845 18.845 18.845 0.001 0 0.002 0 0.003 0h164.491c18.954-1.643 35.196-11.962 44.895-26.918l0.141-0.231 75.698-141.495c10.88-22.197 17.805-48.144 19.146-75.559l0.018-0.458v-107.958c-0.176-10.336-8.509-18.668-18.828-18.844h-74.757c0.801-4.814 1.374-10.54 1.59-16.357l0.007-0.252c0.15-1.817 0.236-3.933 0.236-6.069s-0.086-4.252-0.253-6.344l0.018 0.276h74.42c26.284 0 47.591 21.307 47.591 47.591v0 106.999c-1.801 32.919-10.452 63.434-24.542 90.68l0.587-1.248zM778.061 326.308c-0.095 0-0.207 0.001-0.319 0.001-54.155 0-98.056-43.901-98.056-98.056s43.901-98.056 98.056-98.056c54.155 0 98.056 43.901 98.056 98.056 0 0.112 0 0.224-0.001 0.336v-0.017c0 53.979-43.758 97.737-97.737 97.737v0zM778.061 159.261c-38.279 0-69.31 31.031-69.31 69.31s31.031 69.31 69.31 69.31c38.279 0 69.31-31.031 69.31-69.31v0c0-38.279-31.031-69.31-69.31-69.31v0zM300.556 326.308c-54.155 0-98.056-43.901-98.056-98.056s43.901-98.056 98.056-98.056c54.155 0 98.056 43.901 98.056 98.056 0 0.112 0 0.225-0.001 0.337v-0.017c-0.182 54.017-44.013 97.737-98.056 97.737 0 0 0 0-0.001 0v0zM300.556 159.261c-38.279 0-69.31 31.031-69.31 69.31s31.031 69.31 69.31 69.31c38.279 0 69.31-31.031 69.31-69.31v0c0-38.279-31.031-69.31-69.31-69.31v0zM920.514 478.982c0.001 0.085 0.002 0.185 0.002 0.285 0 4.769-1.431 9.203-3.888 12.896l0.054-0.086-46.952 71.865c-4.298 6.394-11.504 10.544-19.679 10.544-0.156 0-0.311-0.002-0.467-0.005h-119.433c-13.054 0-23.636-10.582-23.636-23.636v0-71.865c0-13.054 10.582-23.636 23.636-23.636h166.408c0.001 0 0.001 0 0.002 0 13.118 0 23.773 10.544 23.953 23.619v0.017zM734.623 483.773v61.006h112.11l40.883-62.283z" />
<glyph unicode="&#xe906;" glyph-name="facebook" d="M967.448 960c0.208 0.003 0.453 0.004 0.698 0.004 15.391 0 29.296-6.364 39.226-16.605l0.013-0.014c10.254-9.944 16.619-23.848 16.619-39.239 0-0.246-0.002-0.491-0.005-0.735v0.037-910.897c-0.18-31.16-25.392-56.371-56.534-56.552h-260.73v396.82h132.593l20.129 154.638h-152.721v98.406c-0.096 1.515-0.15 3.285-0.15 5.067 0 18.586 5.922 35.789 15.981 49.825l-0.176-0.258c13.575 11.907 31.479 19.17 51.081 19.17 3.506 0 6.957-0.232 10.34-0.683l-0.396 0.043h81.153v141.219c-31.008 3.951-66.883 6.205-103.284 6.205-5.362 0-10.714-0.049-16.053-0.146l0.802 0.012c-2.818 0.143-6.119 0.225-9.439 0.225-52.498 0-100.234-20.389-135.721-53.681l0.107 0.099c-33.887-36.030-54.709-84.687-54.709-138.206 0-4.432 0.143-8.831 0.424-13.192l-0.031 0.594v-113.742h-133.232v-154.638h133.232v-397.778h-490.114c-0.208-0.003-0.453-0.004-0.698-0.004-15.391 0-29.296 6.364-39.226 16.605l-0.013 0.014c-10.254 9.944-16.619 23.848-16.619 39.239 0 0.246 0.002 0.491 0.005 0.735v-0.037 910.897c-0.003 0.208-0.004 0.453-0.004 0.698 0 15.391 6.364 29.296 16.605 39.226l0.014 0.013c9.944 10.254 23.848 16.619 39.239 16.619 0.246 0 0.491-0.002 0.735-0.005h-0.037z" />
<glyph unicode="&#xe907;" glyph-name="free" horiz-adv-x="961" d="M157.194 564.139h257.837v-37.701h-257.837v37.701zM157.194 658.391h257.837v-37.701h-257.837v37.701zM157.194 218.758h439.633v-37.701h-439.633v37.701zM754.022 960c-92.080-0.016-170.157-59.957-197.355-142.946l-0.416-1.468h-556.251v-879.586h754.022v608.649c114.696 0 207.676 92.979 207.676 207.676s-92.979 207.676-207.676 207.676v0zM716.321-26.299h-678.62v804.183h511.201c-0.97-7.532-1.549-16.292-1.597-25.178v-0.063c0.029-101.166 72.502-185.396 168.36-203.637l1.294-0.205zM665.201 608.549c-48.994 30.328-81.144 83.778-81.144 144.736 0 32.734 9.271 63.303 25.33 89.225l-0.418-0.725 68.373-50.162s0-2.237 0-3.834c-0.048-0.732-0.075-1.587-0.075-2.448 0-9.801 3.531-18.778 9.39-25.728l-0.049 0.060c5.951-7.092 13.593-12.575 22.315-15.853l0.37-0.122c8.655-3.214 19.355-6.297 30.325-8.654l1.625-0.292v-42.813c-10.779 1.25-20.527 4.772-29.052 10.077l0.297-0.172c-8.137 4.764-14.589 11.627-18.726 19.855l-0.125 0.274-22.685-27.797c7.577-10.357 17.327-18.676 28.618-24.392l0.456-0.209c12.49-6.246 27.151-10.089 42.663-10.54l0.151-0.003v-25.56h27.477v25.56c17.759 0.841 33.943 6.947 47.198 16.778l-0.232-0.164c3.313 2.784 6.248 5.82 8.846 9.133l0.1 0.132 57.83-41.535c-31.377-36.865-77.817-60.096-129.684-60.096-33.006 0-63.814 9.407-89.89 25.687l0.716-0.417zM742.52 792.262l-16.614 11.822c4.317 3.707 9.817 6.151 15.864 6.701l0.111 0.008zM791.084 711.109c0-9.905-7.029-15.656-21.087-17.892v31.95zM832.619 727.403c-1.167 5.775-3.631 10.844-7.079 15.080l0.050-0.063c-5.969 7.16-13.599 12.736-22.31 16.164l-0.375 0.13c-6.004 2.286-13.789 4.696-21.739 6.692l-1.584 0.337-9.585 6.71v38.979c9.078-0.763 17.351-3.635 24.511-8.121l-0.229 0.134c7.488-5.185 13.604-11.811 18.057-19.519l0.154-0.29 23.963 27.158c-7.567 9.495-16.68 17.385-27.019 23.397l-0.458 0.246c-11.357 5.756-24.687 9.353-38.799 9.899l-0.18 0.006v25.56h-27.477v-25.56c-18.406-0.884-35.089-7.605-48.405-18.336l0.16 0.125-61.983 44.73c30.894 31.96 74.15 51.803 122.040 51.803 93.698 0 169.655-75.957 169.655-169.655 0-28.624-7.089-55.591-19.606-79.244l0.445 0.922zM157.194 313.011h439.633v-37.701h-439.633v37.701zM157.194 407.264h439.633v-37.701h-439.633v37.701z" />
<glyph unicode="&#xe908;" glyph-name="hamburger" d="M0 155.497h731.337v-97.448h-731.337v97.448zM0 837.951h1024v-97.448h-1024v97.448zM0 496.724h1024v-97.448h-1024v97.448z" />
<glyph unicode="&#xe909;" glyph-name="heart-o" d="M511.201 4.373v0c-0.305-0.005-0.666-0.008-1.027-0.008-18.187 0-34.599 7.598-46.236 19.792l-0.024 0.025-332.281 319.501c-5.686 4.668-10.796 9.475-15.567 14.601l-0.088 0.096c-11.502 12.461-22.046 24.921-31.95 37.701-12.803 16.075-25.448 34.112-36.986 52.903l-1.354 2.371c-12.386 20.608-23.223 44.403-31.272 69.448l-0.678 2.44c-8.71 25.328-13.739 54.513-13.739 84.872 0 0.153 0 0.306 0 0.459v-0.024c-0.219 4.132-0.344 8.97-0.344 13.837 0 75.239 29.859 143.505 78.374 193.593l-0.071-0.074c51.381 47.201 120.2 76.132 195.776 76.132 5.422 0 10.81-0.149 16.158-0.443l-0.744 0.033c28.077-0.241 54.958-5.018 80.057-13.63l-1.78 0.531c27.418-9.202 51.2-20.996 73.003-35.525l-1.116 0.699c20.768-13.419 38.34-26.519 53.357-38.34 7.075-5.412 13.323-10.748 19.274-16.393l-0.104 0.098c6.39 5.751 12.78 11.183 19.49 16.295 14.697 11.822 31.95 24.602 53.357 38.34 20.688 13.829 44.47 25.624 69.74 34.193l2.148 0.632c23.321 8.108 50.206 12.887 78.178 13.099l0.1 0.001c4.535 0.253 9.841 0.397 15.181 0.397 75.648 0 144.541-28.923 196.224-76.313l-0.215 0.195c48.443-50.014 78.302-118.28 78.302-193.519 0-4.867-0.125-9.705-0.372-14.511l0.028 0.674c0-87.543-44.411-176.364-132.273-263.908l-332.6-319.501c-12.023-12.784-29.042-20.75-47.922-20.768h-0.003zM289.148 823.573c-4.712 0.354-10.207 0.555-15.749 0.555-56.787 0-108.631-21.164-148.074-56.036l0.239 0.207c-35.728-37.791-57.693-88.92-57.693-145.179 0-5.127 0.182-10.212 0.541-15.248l-0.039 0.677c-0.004-0.479-0.007-1.045-0.007-1.612 0-22.317 3.865-43.73 10.962-63.609l-0.411 1.321c7.108-22.367 15.885-41.719 26.602-59.784l-0.723 1.316c10.672-18.409 21.229-34.059 32.714-48.957l-0.764 1.032c9.266-11.822 18.531-22.685 28.116-31.95 3.593-3.834 7.346-7.385 11.303-10.701l0.199-0.162 334.837-322.696 332.281 319.501c73.805 74.124 111.506 146.651 111.506 215.344 0.329 4.407 0.517 9.546 0.517 14.73 0 56.268-22.105 107.372-58.105 145.103l0.078-0.083c-39.042 35.19-90.999 56.717-147.983 56.717-5.152 0-10.263-0.176-15.327-0.522l0.685 0.038c-20.334-0.281-39.736-3.886-57.812-10.294l1.26 0.39c-21.441-7.113-40.050-16.316-57.085-27.693l0.853 0.536c-18.531-12.141-34.826-23.643-48.245-34.506-13.755-10.978-26.050-22.058-37.655-33.821l-0.046-0.046-24.921-23.963-24.282 23.963c-11.651 11.809-23.946 22.889-36.865 33.221l-0.836 0.646c-14.069 11.271-29.906 22.634-46.328 33.164l-2.237 1.342c-16.088 10.917-34.598 20.124-54.314 26.696l-1.599 0.462c-16.514 5.917-35.571 9.513-55.414 9.902l-0.179 0.003z" />
<glyph unicode="&#xe90a;" glyph-name="heart" d="M511.042 9.143c-0.162-0.003-0.352-0.004-0.544-0.004-9.7 0-18.457 4.041-24.678 10.532l-0.012 0.012-355.493 343.995c-5.666 4.702-10.773 9.505-15.569 14.604l-0.082 0.088c-11.179 12.137-21.719 24.594-31.94 37.37-13.2 16.346-25.957 34.597-37.43 53.707l-1.218 2.188c-12.292 19.793-23.101 42.601-31.247 66.637l-0.693 2.354c-7.699 23.252-12.139 50.019-12.139 77.823 0 0.376 0.001 0.752 0.002 1.127v-0.058c-0.268 4.436-0.42 9.622-0.42 14.844 0 70.503 27.789 134.515 73.012 181.68l-0.088-0.092c48.63 44.258 113.557 71.36 184.814 71.36 5.548 0 11.057-0.164 16.523-0.488l-0.753 0.036c25.897-0.234 50.684-4.659 73.821-12.627l-1.637 0.49c26.199-8.508 48.926-19.336 69.903-32.672l-1.232 0.732q31.94-21.080 54.618-39.286c15.334-12.862 29.191-25.91 42.271-39.702l0.21-0.223c13.405 13.401 27.568 26.046 42.419 37.864l1.020 0.783q22.358 18.206 54.618 39.286c19.66 12.682 42.287 23.514 66.269 31.351l2.083 0.589c21.599 7.48 46.496 11.905 72.395 12.136l0.109 0.001c4.762 0.296 10.327 0.464 15.932 0.464 71.105 0 135.878-27.112 184.545-71.562l-0.212 0.191c45.323-46.972 73.248-110.994 73.248-181.539 0-5.239-0.154-10.442-0.458-15.604l0.033 0.712q0-127.76-130.954-257.118l-354.855-341.44c-6.334-6.517-15.183-10.561-24.977-10.561-0.427 0-0.852 0.008-1.275 0.023l0.061-0.002z" />
<glyph unicode="&#xe90b;" glyph-name="instagram" d="M682.773 448.799c-0.724 94.029-77.117 169.975-171.248 169.975-0.114 0-0.228 0-0.342 0h0.018c-93.584-0.718-169.256-76.39-169.974-169.906v-0.069c0-0.096 0-0.21 0-0.324 0-94.131 75.946-170.524 169.906-171.247h0.069c0.095 0 0.207 0 0.32 0 94.58 0 171.252 76.672 171.252 171.252 0 0.112 0 0.225 0 0.337v-0.017zM774.789 448.799c0.005-0.572 0.007-1.248 0.007-1.924 0-144.517-117.154-261.671-261.671-261.671-0.677 0-1.352 0.003-2.028 0.008l0.104-0.001c-0.097 0-0.212 0-0.327 0-144.517 0-261.671 117.154-261.671 261.671 0 0.674 0.003 1.348 0.008 2.020l-0.001-0.103c-0.023 1.285-0.037 2.801-0.037 4.32 0 71.203 29.372 135.546 76.66 181.574l0.057 0.055c46.027 46.965 110.116 76.078 181.005 76.078 1.514 0 3.024-0.013 4.532-0.040l-0.227 0.003c0.57 0.004 1.243 0.007 1.917 0.007 144.517 0 261.671-117.154 261.671-261.671 0-0.115 0-0.23 0-0.344v0.018zM846.677 721.333c-0.16-33.581-27.42-60.742-61.024-60.742-33.703 0-61.025 27.322-61.025 61.025s27.322 61.025 61.025 61.025c16.842 0 32.091-6.823 43.132-17.855v0c11.051-10.899 17.896-26.037 17.896-42.774 0-0.238-0.001-0.477-0.004-0.714v0.036zM511.201 867.984h-50.162c-31.95 0-54.315 0-70.29 0l-63.9-1.917c-25.208-1.014-48.881-3.416-72.105-7.164l3.412 0.454c-17.97-2.843-33.991-7.182-49.271-13.019l1.665 0.559c-43.645-18.199-77.651-52.206-95.421-94.692l-0.429-1.158c-5.279-13.615-9.617-29.636-12.277-46.218l-0.184-1.388c-3.293-19.811-5.696-43.485-6.672-67.525l-0.038-1.167c0-27.158-1.598-48.564-1.917-63.9s0-39.299 0-70.29 0-47.925 0-50.801 0-20.129 0-51.12 0-54.315 0-70.29 0-37.382 1.917-63.9c0.185-25.307 1.921-50.017 5.118-74.267l-0.325 3.018c2.843-17.97 7.182-33.991 13.019-49.271l-0.559 1.665c18.199-43.645 52.206-77.651 94.692-95.421l1.158-0.429c13.615-5.279 29.636-9.617 46.218-12.277l1.388-0.184c19.811-3.293 43.485-5.696 67.525-6.672l1.167-0.038 63.9-1.917c15.975 0 39.299 0 70.29 0h101.921c31.95 0 54.315 0 70.29 0l63.9 1.917c25.753 0.524 50.506 2.597 74.784 6.136l-3.215-0.385c17.97 2.843 33.991 7.182 49.271 13.019l-1.665-0.559c43.645 18.199 77.651 52.206 95.421 94.692l0.429 1.158c5.64 13.889 10.302 30.206 13.214 47.122l0.205 1.442c3.293 19.811 5.696 43.485 6.672 67.525l0.038 1.167c0 27.158 1.598 48.564 1.917 63.9s0 39.299 0 70.29 0 47.925 0 51.12 0 19.809 0 50.801 0 54.315 0 70.29 0 37.382-1.917 63.9c-1.014 25.208-3.416 48.881-7.164 72.105l0.454-3.412c-2.843 17.97-7.182 33.991-13.019 49.271l0.559-1.665c-18.199 43.645-52.206 77.651-94.692 95.421l-1.158 0.429c-13.853 6.232-30.096 11.523-46.985 15.059l-1.579 0.277c-19.811 3.293-43.485 5.696-67.525 6.672l-1.167 0.038-63.9 1.917c-15.975 0-39.299 0-70.29 0zM1024 448.799q0-153.041-3.195-211.51c0.005-0.633 0.007-1.382 0.007-2.131 0-82.077-31.452-156.807-82.961-212.797l0.203 0.224c-56.008-52.585-131.574-84.913-214.69-84.987h-0.015q-58.469-3.515-211.51-3.195c-101.601 0-172.211 0-211.19 3.195-0.633-0.005-1.382-0.007-2.131-0.007-82.077 0-156.807 31.452-212.797 82.961l0.224-0.203c-51.315 55.768-82.773 130.505-82.773 212.589 0 1.306 0.008 2.609 0.024 3.911l-0.002-0.198q-3.195 58.469-3.195 212.149c0 101.601 0 172.211 3.195 211.19-0.002 0.444-0.004 0.97-0.004 1.496 0 82.075 31.451 156.804 82.957 212.793l-0.203-0.224c55.766 51.306 130.497 82.758 212.573 82.758 0.749 0 1.498-0.003 2.246-0.008l-0.115 0.001c38.979 3.195 109.589 3.195 210.551 3.195s172.53 0 211.51-3.195c0.633 0.005 1.382 0.007 2.131 0.007 82.077 0 156.807-31.452 212.797-82.961l-0.224 0.203c52.585-56.008 84.913-131.574 84.987-214.69v-0.015c0-38.979 1.598-109.589 1.598-210.551z" />
<glyph unicode="&#xe90c;" glyph-name="linkedin" d="M232.597 619.412v-660.728h-219.817v660.728zM246.655 823.254c0.076-1.5 0.119-3.258 0.119-5.025 0-29.828-12.275-56.789-32.048-76.108l-0.020-0.020c-22.431-19.915-52.134-32.079-84.678-32.079-2.019 0-4.027 0.047-6.023 0.139l0.283-0.010c-2.942-0.253-6.365-0.398-9.823-0.398-31.898 0-60.923 12.301-82.589 32.418l0.076-0.070c-19.782 19.823-32.014 47.187-32.014 77.407 0 1.317 0.023 2.629 0.069 3.935l-0.005-0.189c-0.021 0.789-0.032 1.718-0.032 2.65 0 31.174 13.131 59.28 34.164 79.091l0.055 0.051c22.427 19.899 52.119 32.053 84.649 32.053 1.805 0 3.6-0.037 5.387-0.111l-0.256 0.008c1.815 0.096 3.941 0.151 6.079 0.151 31.928 0 61.008-12.196 82.835-32.184l-0.092 0.083c20.907-20.341 33.879-48.747 33.879-80.182 0-0.566-0.004-1.131-0.013-1.695l0.001 0.085zM1024 337.293v-378.608h-219.178v353.368c0.173 3.061 0.271 6.642 0.271 10.246 0 36.678-10.198 70.973-27.914 100.206l0.485-0.863c-17.614 24.254-45.879 39.843-77.785 39.843-2.309 0-4.6-0.082-6.868-0.242l0.305 0.017c-1.101 0.040-2.394 0.063-3.692 0.063-25.246 0-48.462-8.688-66.822-23.238l0.224 0.171c-18.4-14.985-32.881-34.079-42.137-55.925l-0.356-0.947c-4.714-14.589-7.431-31.373-7.431-48.793 0-1.83 0.030-3.652 0.089-5.467l-0.007 0.265v-368.704h-219.178q0 265.825 0 431.326t0 197.451v31.95h219.178v-95.85c8.747 14.101 17.807 26.311 27.764 37.717l-0.287-0.335c11.368 12.777 23.707 24.205 37.065 34.361l0.637 0.464c16.399 12.658 35.691 22.527 56.636 28.466l1.194 0.289c22.006 6.701 47.299 10.559 73.492 10.559 1.009 0 2.016-0.006 3.021-0.017l-0.153 0.001c2.841 0.122 6.175 0.191 9.524 0.191 68.626 0 130.442-29.16 173.733-75.765l0.136-0.148q68.373-76.041 68.054-222.053z" />
<glyph unicode="&#xe90d;" glyph-name="minus" d="M0 488.417h1024v-80.834h-1024z" />
<glyph unicode="&#xe90e;" glyph-name="pinterest" horiz-adv-x="788" d="M0 592.574c-0.004 0.647-0.007 1.413-0.007 2.179 0 44.271 8.447 86.569 23.816 125.37l-0.805-2.305c15.491 39.682 37.121 73.732 64.084 102.76l-0.184-0.2c27.030 28.984 57.694 54.057 91.396 74.644l1.898 1.077c32.825 20.003 70.767 36.404 110.996 47.223l3.066 0.702c37.276 10.146 80.075 15.975 124.236 15.975 0.017 0 0.035 0 0.052 0h-0.003c0.825 0.006 1.8 0.009 2.776 0.009 64.786 0 126.045-15.1 180.449-41.972l-2.388 1.066c55.826-27.516 101.605-67.97 134.688-117.61l0.78-1.245c32.646-48.361 52.112-107.957 52.112-172.1 0-1.612-0.012-3.221-0.037-4.826l0.003 0.243c0-0.227 0.001-0.496 0.001-0.764 0-40.666-4.188-80.353-12.157-118.655l0.654 3.76c-8.792-41.238-21.571-77.644-38.306-111.757l1.244 2.808c-16.92-35.206-37.409-65.503-61.644-92.354l0.3 0.338c-24.713-26.595-54.447-48.145-87.743-63.205l-1.717-0.695c-33.322-14.951-72.225-23.66-113.161-23.66-1.103 0-2.205 0.006-3.305 0.019l0.167-0.002c-30.304 0.138-58.871 7.441-84.135 20.301l1.065-0.492c-25.386 11.264-45.758 29.988-58.785 53.365l-0.323 0.631c-3.834-15.975-9.585-38.979-17.253-69.332l-14.378-58.469c-2.237-8.627-6.39-23.324-12.461-43.452-4.882-17.191-10.322-31.724-16.771-45.695l0.796 1.923c-4.793-8.946-11.183-21.726-19.809-38.34-9.612-18.72-19.053-34.399-29.4-49.404l0.964 1.479c-10.224-15.017-23.004-31.95-38.021-53.037l-8.627-3.195-5.432 6.071c-6.39 63.9-9.266 103.199-9.266 115.659 0.559 45.551 5.301 89.642 13.861 132.354l-0.761-4.553c8.946 46.967 22.365 106.074 40.896 177.003s29.075 112.464 31.95 124.925c-12.436 27.794-19.679 60.237-19.679 94.37 0 3.33 0.069 6.643 0.205 9.939l-0.016-0.472c0.195 36.124 12.162 69.415 32.254 96.275l-0.304-0.424c17.252 27.049 47.101 44.73 81.080 44.73 0.026 0 0.051 0 0.077 0h-0.004c1.222 0.075 2.652 0.117 4.091 0.117 21.716 0 41.173-9.672 54.298-24.943l0.080-0.095c13.196-16.013 21.199-36.735 21.199-59.326 0-1.609-0.041-3.208-0.121-4.797l0.009 0.223c-3.276-43.117-12.954-83.078-28.112-120.221l0.955 2.645c-14.142-33.722-23.813-72.796-27.071-113.676l-0.086-1.344c-0.011-0.515-0.018-1.121-0.018-1.729 0-24.668 10.711-46.835 27.736-62.102l0.078-0.069c17.051-15.851 39.982-25.579 65.186-25.579 0.671 0 1.341 0.007 2.009 0.021l-0.1-0.002c0.655-0.012 1.428-0.018 2.203-0.018 22.577 0 43.827 5.684 62.397 15.699l-0.699-0.345c19.448 10.315 35.598 24.423 47.968 41.454l0.277 0.4c12.66 16.934 24.173 36.126 33.661 56.454l0.845 2.015c9.475 19.469 17.497 42.181 22.908 65.888l0.416 2.166c4.791 18.485 9.16 41.581 12.154 65.107l0.306 2.947c2.436 18.223 3.939 39.494 4.151 61.074l0.002 0.27c0.194 3.381 0.305 7.336 0.305 11.317 0 61.354-26.282 116.569-68.203 155.002l-0.156 0.141c-44.076 37.127-101.486 59.689-164.165 59.689-4.066 0-8.11-0.095-12.129-0.283l0.569 0.021c-2.454 0.076-5.34 0.119-8.237 0.119-76.751 0-146.409-30.374-197.607-79.757l0.086 0.082c-50.949-49.175-82.587-118.069-82.587-194.352 0-3.225 0.057-6.436 0.169-9.633l-0.013 0.464c0.079-18.26 2.876-35.838 8.007-52.39l-0.339 1.27c4.504-15.274 10.156-28.516 17.122-40.922l-0.508 0.984c6.071-9.905 11.502-19.17 16.614-28.116 3.724-5.246 6.413-11.493 7.626-18.252l0.042-0.279c-0.737-16.36-3.955-31.742-9.287-46.097l0.341 1.048c-6.39-18.531-13.739-27.797-23.004-27.797l-10.224 1.917c-22.288 6.598-41.283 18.568-56.17 34.439l-0.063 0.067c-15.524 16.299-28.063 35.608-36.633 56.939l-0.429 1.21c-7.973 18.799-14.918 41.038-19.712 64.065l-0.416 2.391c-4.199 19.66-6.639 42.274-6.709 65.444v0.053z" />
<glyph unicode="&#xe90f;" glyph-name="plus" d="M1024 488.417h-471.583v471.583h-80.834v-471.583h-471.583v-80.834h471.583v-471.583h80.834v471.583h471.583v80.834z" />
<glyph unicode="&#xe910;" glyph-name="return" d="M550.967 921.033c-246.641-0.58-448.957-189.576-470.665-430.642l-0.133-1.827-53.659 76.976-26.51-18.525 86.238-123.289 123.289 86.238-17.886 26.51-79.531-55.576c17.645 228.682 207.545 407.556 439.224 407.556 243.256 0 440.454-197.198 440.454-440.454s-197.198-440.454-440.454-440.454c-0.129 0-0.258 0-0.387 0h0.020v-31.94c3.66-0.102 7.969-0.16 12.291-0.16 261.249 0 473.033 211.784 473.033 473.033s-211.784 473.033-473.033 473.033c-4.322 0-8.63-0.058-12.924-0.173l0.633 0.013zM766.563 608.659h-63.88l-151.396 87.516-150.757-87.516h-63.88v-348.786h429.914zM551.286 659.124l30.024-17.567h-60.367zM734.623 292.132h-366.353v284.586h366.353zM591.211 380.926h107.319v-53.659h-107.319v53.659z" />
<glyph unicode="&#xe911;" glyph-name="search" d="M676.703 246.555c74.194 66.732 120.643 163.054 120.643 270.223 0 200.453-162.5 362.953-362.953 362.953-197.057 0-357.435-157.039-362.814-352.796l-0.011-0.497c0-2.237 0-4.473 0-6.71-0.008-0.878-0.012-1.915-0.012-2.953 0-200.453 162.5-362.953 362.953-362.953 68.385 0 132.353 18.912 186.958 51.792l-1.635-0.913 51.12-55.913c-67.097-44.881-149.631-71.624-238.411-71.624-238.921 0-432.604 193.683-432.604 432.604 0 2.603 0.023 5.202 0.069 7.794l-0.005-0.39v3.834c9.171 232.203 199.631 416.968 433.245 416.968 239.008 0 432.845-193.396 433.561-432.236v-0.068c-1.195-92.223-31.192-177.21-81.383-246.639l0.868 1.262 236.111-244.099-67.415-63.9z" />
<glyph unicode="&#xe912;" glyph-name="snapchat" d="M1000.996 209.173c-127.8 21.407-187.866 151.763-194.256 166.779 0 0 0 0 0 1.598-3.897 6.058-6.213 13.455-6.213 21.393 0 3.756 0.519 7.392 1.488 10.838l-0.068-0.281c6.71 15.975 35.465 25.241 53.996 31.95l13.739 4.793c37.062 14.697 55.913 31.95 55.593 55.593-2.217 19.939-16.221 36.093-34.802 41.45l-0.343 0.085c-6.959 2.831-15.031 4.473-23.488 4.473-0.055 0-0.109 0-0.164 0h0.008c-0.020 0-0.044 0-0.067 0-7.939 0-15.494-1.645-22.342-4.613l0.364 0.14c-11.778-6.185-25.542-10.395-40.128-11.787l-0.448-0.035c-1.631-0.215-3.517-0.338-5.432-0.338s-3.801 0.123-5.65 0.361l0.219-0.023c0 5.751 0 11.502 0 17.253v3.195c4.473 69.332 9.905 156.236-13.1 207.995-43.905 98.268-140.784 165.51-253.369 165.51-0.785 0-1.569-0.003-2.352-0.010l0.12 0.001h-19.809c-0.725 0.007-1.582 0.011-2.44 0.011-112.528 0-209.349-67.253-252.46-163.758l-0.7-1.755c-23.324-52.079-17.892-138.663-13.419-208.315 0-6.71 0-13.419 0-20.129-1.969-0.314-4.238-0.493-6.55-0.493s-4.581 0.179-6.796 0.524l0.246-0.032c-16.119 0.803-31.069 5.083-44.349 12.1l0.578-0.278c-5.991 2.328-12.926 3.677-20.176 3.677-25.129 0-46.473-16.207-54.149-38.739l-0.119-0.403c-3.195-16.934 3.515-41.535 54.635-61.664l15.017-5.112c17.253-5.432 46.008-14.697 52.718-31.95 0.842-3.062 1.326-6.577 1.326-10.206 0-8.084-2.402-15.608-6.531-21.895l0.093 0.151c-2.556-6.071-63.9-144.414-197.771-166.46-13.17-2.351-23.038-13.716-23.038-27.386 0-0.481 0.012-0.96 0.036-1.436l-0.003 0.067c0.425-4.359 1.443-8.366 2.978-12.105l-0.103 0.283c11.183-26.199 54.315-44.73 135.149-57.51 1.737-5.249 3.398-11.803 4.641-18.504l0.152-0.985c1.917-7.668 3.515-15.656 6.071-23.963 3.35-13.203 15.129-22.815 29.153-22.815 0.985 0 1.959 0.047 2.919 0.14l-0.122-0.010c8.87 0.444 17.197 1.585 25.277 3.381l-0.995-0.186c14.938 3.149 32.142 5.005 49.76 5.112h0.082c0.101 0 0.22 0 0.34 0 13.088 0 25.905-1.162 38.352-3.39l-1.311 0.194c27.13-7.224 50.696-19.808 70.55-36.638l-0.26 0.215c34.876-28.526 79.911-45.813 128.984-45.813 2.505 0 5 0.045 7.483 0.134l-0.359-0.010h11.822c1.818-0.046 3.958-0.073 6.104-0.073 54.218 0 104.493 16.881 145.856 45.674l-0.837-0.551c19.574 16.429 42.997 28.981 68.675 36.116l1.296 0.307c11.227 2.033 24.15 3.195 37.344 3.195 0.126 0 0.251 0 0.377 0h-0.019c0.034 0 0.073 0 0.113 0 18.642 0 36.795-2.095 54.236-6.063l-1.632 0.312c7.509-1.656 16.2-2.694 25.102-2.873l0.138-0.002c0.348-0.015 0.756-0.023 1.167-0.023 13.747 0 25.289 9.437 28.504 22.185l0.043 0.203c2.556 8.307 4.154 15.975 6.071 23.963 1.661 7.957 3.424 14.493 5.505 20.886l-0.393-1.397c79.556 12.461 120.132 30.033 131.634 56.552 1.545 3.464 2.573 7.485 2.869 11.709l0.006 0.113c0.051 0.634 0.081 1.372 0.081 2.117 0 13.458-9.565 24.683-22.268 27.247l-0.178 0.030z" />
<glyph unicode="&#xe913;" glyph-name="triangle-down" d="M1024 704.479l-512.958-511.042-511.042 511.042zM511.042 298.84l330.9 329.941h-659.883z" />
<glyph unicode="&#xe914;" glyph-name="triangle-left" horiz-adv-x="512" d="M511.042-64l-511.042 512.958 511.042 511.042zM106.68 448.958l329.941-330.9v659.883z" />
<glyph unicode="&#xe915;" glyph-name="triangle-right" horiz-adv-x="512" d="M0 960l511.042-511.042-511.042-511.042zM405.32 448.958l-329.941 328.983v-659.883z" />
<glyph unicode="&#xe916;" glyph-name="triangle-up" d="M0 193.437l511.042 511.042 511.042-511.042zM511.042 597.48l-328.983-329.941h659.883z" />
<glyph unicode="&#xe917;" glyph-name="truck" d="M999.398 462.537l-82.431 153.68c-16.208 25.964-43.893 43.453-75.777 45.356l-0.264 0.013h-177.323c-7.419-0.040-14.444-1.683-20.759-4.602l0.311 0.129v81.473c0 0 0 0.001 0 0.001 0 28.473-22.992 51.577-51.422 51.758h-540.293c-28.448-0.181-51.44-23.285-51.44-51.758 0 0 0-0.001 0-0.001v0-488.836c0.18-28.337 23.103-51.26 51.422-51.44h59.125c0 4.473 0 8.627 0 13.1 0.181 6.45 0.871 12.612 2.032 18.606l-0.115-0.714h-61.025c-10.873 0.526-19.49 9.47-19.49 20.426 0 0.008 0 0.016 0 0.024v-0.001 488.836c-0.007 0.191-0.010 0.416-0.010 0.642 0 11.117 9.012 20.129 20.129 20.129 0.116 0 0.232-0.001 0.347-0.003h539.3c11.47 0 20.768-9.298 20.768-20.768v0-488.836c0-0.001 0-0.002 0-0.002 0-11.293-9.155-20.448-20.448-20.448-0.112 0-0.224 0.001-0.336 0.003h-214.049c1.046-5.28 1.736-11.442 1.913-17.733l0.004-0.159c0-4.473 0-8.627 0-13.1h213.427c28.337 0.18 51.26 23.103 51.44 51.422v358.816c0 11.293 9.155 20.448 20.448 20.448v0h177.323c20.414-1.698 37.932-12.759 48.414-28.829l0.15-0.246 81.473-151.124c11.888-23.958 19.405-52.004 20.751-81.658l0.016-0.454v-115.979c0-11.293-9.155-20.448-20.448-20.448v0h-80.195c0.784-5.15 1.357-11.325 1.589-17.587l0.009-0.305c0.15-1.96 0.236-4.245 0.236-6.55s-0.086-4.59-0.254-6.852l0.018 0.302h79.875c28.409 0 51.44 23.030 51.44 51.44v0 115.020c-1.77 35.625-11.137 68.686-26.502 98.118l0.622-1.309zM759.134 316.845c-0.095 0-0.207 0-0.319 0-58.407 0-105.755-47.348-105.755-105.755s47.348-105.755 105.755-105.755c58.407 0 105.755 47.348 105.755 105.755 0 0.112 0 0.224-0.001 0.336v-0.017c-0.181 58.157-47.278 105.254-105.418 105.435h-0.017zM759.134 136.646c-0.095 0-0.207-0.001-0.32-0.001-41.291 0-74.763 33.473-74.763 74.763s33.473 74.763 74.763 74.763c41.29 0 74.763-33.472 74.763-74.762v0c0 0 0 0 0-0.001 0-41.178-33.291-74.581-74.426-74.762h-0.017zM244.418 316.845c-0.095 0-0.207 0-0.319 0-58.407 0-105.755-47.348-105.755-105.755s47.348-105.755 105.755-105.755c58.407 0 105.755 47.348 105.755 105.755 0 0.112 0 0.224-0.001 0.336v-0.017c0 58.23-47.205 105.435-105.435 105.435v0zM244.418 136.646c-41.153 0.182-74.444 33.584-74.444 74.762 0 41.291 33.473 74.763 74.763 74.763s74.763-33.472 74.763-74.762v0c0 0 0 0 0-0.001 0-41.291-33.473-74.763-74.763-74.763-0.112 0-0.225 0-0.337 0.001h0.017z" />
<glyph unicode="&#xe918;" glyph-name="twitter" d="M1024 765.105c-29.177-42.361-64-78.301-103.894-107.769l-1.222-0.862c0-6.071 0-15.017 0-27.158 0-0.233 0.001-0.51 0.001-0.787 0-59.856-8.873-117.639-25.375-172.106l1.093 4.197c-18.662-60.826-44.213-113.819-76.465-161.941l1.383 2.191c-34.025-53.483-73.677-99.435-119.059-138.979l-0.754-0.643c-47.463-40.258-103.032-72.779-163.682-94.672l-3.736-1.178c-58.427-20.355-125.776-32.111-195.87-32.111-4.938 0-9.862 0.058-14.772 0.174l0.73-0.014c-2.052-0.026-4.476-0.041-6.902-0.041-117.24 0-226.376 34.696-317.7 94.381l2.226-1.365c13.768-1.646 29.714-2.586 45.879-2.586 1.73 0 3.458 0.011 5.184 0.032l-0.262-0.003c1.311-0.015 2.86-0.024 4.412-0.024 97.164 0 186.45 33.727 256.791 90.111l-0.81-0.628c-46.188 0.546-88.588 16.321-122.523 42.526l0.474-0.352c-34.64 25.444-60.591 60.903-73.729 102.084l-0.395 1.434c11.885-1.996 25.601-3.157 39.581-3.195h0.037c0.159 0 0.348-0.001 0.537-0.001 19.456 0 38.313 2.565 56.252 7.375l-1.515-0.346c-48.952 9.785-90.632 35.827-120.154 72.149l-0.298 0.378c-29.811 35.010-47.945 80.76-47.945 130.745 0 0.987 0.007 1.972 0.021 2.955l-0.002-0.149v2.556c27.583-15.868 60.485-25.591 95.58-26.513l0.27-0.006c-57.102 38.019-94.29 102.020-94.572 174.724v0.043c-0.002 0.327-0.003 0.714-0.003 1.102 0 38.621 10.69 74.745 29.273 105.574l-0.515-0.921c52.011-63.862 115.822-115.935 188.397-153.407l3.303-1.551c70.074-36.77 152.518-59.946 239.975-63.856l1.248-0.044c-3.25 14.383-5.112 30.9-5.112 47.853 0 0.025 0 0.051 0 0.076v-0.004c-0.019 1.027-0.029 2.239-0.029 3.454 0 56.903 23.5 108.318 61.325 145.068l0.048 0.047c38.079 37.69 90.479 60.975 148.316 60.975 60.505 0 115.058-25.482 153.513-66.3l0.099-0.106c50.107 9.88 94.654 27.409 134.791 51.528l-1.878-1.047c-15.985-49.491-48.721-89.794-91.385-115.137l-0.95-0.523c44.783 5.326 85.591 16.805 123.476 33.664l-2.704-1.075z" />
<glyph unicode="&#xe919;" glyph-name="x" d="M1023.681 891.648l-68.032 68.352-443.648-443.648-443.648 443.648-68.352-68.352 443.648-443.648-443.648-443.648 68.352-68.032 443.648 443.648 443.648-443.648 68.032 68.032-443.648 443.648 443.648 443.648z" />
<glyph unicode="&#xe91a;" glyph-name="youtube" d="M406.405 315.567l276.368 142.817-276.368 144.414zM511.201 807.918c63.9 0 125.564 0 185.31-2.556s103.199-3.515 130.995-5.432l41.855-2.237h9.585c1.962 0.182 4.244 0.285 6.55 0.285s4.587-0.103 6.84-0.306l-0.291 0.021 13.419-2.556c6.173-1.060 11.647-2.613 16.866-4.672l-0.572 0.199c6.524-2.735 11.774-5.304 16.868-8.121l-0.893 0.453c6.821-3.232 12.699-6.962 18.055-11.311l-0.163 0.128c6.157-4.622 11.59-9.549 16.536-14.93l0.078-0.086c3.011-3.183 5.843-6.623 8.428-10.25l0.199-0.293c6.25-9.63 11.846-20.693 16.221-32.353l0.393-1.194c7.29-16.735 12.681-36.155 15.229-56.459l0.108-1.051c2.876-24.602 5.432-50.481 7.029-77.958s2.876-49.203 3.195-63.9v-100.643c0.009-1.725 0.013-3.766 0.013-5.808 0-56.414-3.72-111.959-10.929-166.403l0.692 6.389c-2.795-21.208-7.834-40.402-14.958-58.549l0.58 1.677c-4.949-13.417-11.091-25.019-18.54-35.638l0.328 0.493-7.988-9.585c-5.024-5.468-10.457-10.394-16.308-14.796l-0.306-0.22c-5.157-4.255-11.053-7.897-17.413-10.676l-0.479-0.187-15.975-7.349c-4.721-2.032-10.21-3.596-15.935-4.43l-0.359-0.043-13.739-2.556-13.1-1.917h-9.266q-143.136-11.183-358.16-10.863c-78.917 0-147.609 1.917-205.439 3.515s-95.85 3.195-114.701 4.473l-27.158-2.876-20.448 2.237c-12.325 1.46-23.175 3.479-33.772 6.138l1.822-0.387c-11.37 3.561-21.101 7.679-30.338 12.6l0.944-0.459c-12.342 6.216-22.893 14.013-31.924 23.297l-0.026 0.027c-3.011 3.183-5.843 6.623-8.428 10.25l-0.199 0.293c-6.089 9.887-11.491 21.29-15.611 33.288l-0.364 1.218c-7.29 16.735-12.681 36.155-15.229 56.459l-0.108 1.051c-2.876 24.602-5.432 50.481-7.029 77.639s-3.195 49.523-3.195 63.9v101.921c-0.009 1.725-0.013 3.766-0.013 5.808 0 56.414 3.72 111.959 10.929 166.403l-0.692-6.389c2.795 21.208 7.834 40.402 14.958 58.549l-0.58-1.677c4.949 13.417 11.091 25.019 18.54 35.638l-0.328-0.493 7.988 9.585c4.997 5.076 10.427 9.695 16.24 13.807l0.374 0.251c5.193 4.22 11.071 7.951 17.362 10.955l0.53 0.228c4.2 2.364 9.451 4.933 14.841 7.237l1.134 0.431c4.648 1.86 10.122 3.413 15.79 4.4l0.504 0.073 13.419 2.556c1.962 0.182 4.244 0.285 6.55 0.285s4.587-0.103 6.84-0.306l-0.291 0.021h9.585q143.456 13.419 357.521 13.739z" />
</font>
</defs>
</svg>
