<?xml version="1.0" standalone="no"?>
<!DOCTYPE svg PUBLIC "-//W3C//DTD SVG 1.1//EN" "http://www.w3.org/Graphics/SVG/1.1/DTD/svg11.dtd" >
<svg>
<metadata>
Created by FontForge 20090622 at Mon Mar 27 14:34:59 2017
 By deploy user
Copyright &#194;&#169; 2004 - 2007 Linotype GmbH, www.linotype.com. All rights reserved.
</metadata>
<defs>
<font id="AvenirNextCondensed-DemiBold" horiz-adv-x="500" >
  <font-face 
    font-family="Avenir Next Condensed Demi Bold"
    font-weight="600"
    font-stretch="condensed"
    units-per-em="1000"
    panose-1="2 11 7 6 2 2 2 2 2 4"
    ascent="800"
    descent="-200"
    x-height="510"
    cap-height="708"
    bbox="-121 -250 912 959"
    underline-thickness="50"
    underline-position="-50"
    unicode-range="U+000D-U+FB02"
  />
<missing-glyph horiz-adv-x="512" 
d="M222 117v67h56v-67h-56zM225 234l-2 17q0 56 13 81q7 13 18 27.5t28 31.5q16 15 26 26.5t15 21t7 18t2 17.5q0 36 -22.5 60.5t-53.5 24.5t-53.5 -22t-28.5 -73l-50 8q7 72 44 104.5t91 32.5t89 -35.5t35 -95.5q0 -32 -12.5 -58.5t-50.5 -61.5q-37 -33 -43 -52
q-6 -20 -6 -72h-46zM462 50v617h-412v-617h412zM512 718v-718h-512v718h512z" />
    <glyph glyph-name=".notdef" horiz-adv-x="512" 
d="M222 117v67h56v-67h-56zM225 234l-2 17q0 56 13 81q7 13 18 27.5t28 31.5q16 15 26 26.5t15 21t7 18t2 17.5q0 36 -22.5 60.5t-53.5 24.5t-53.5 -22t-28.5 -73l-50 8q7 72 44 104.5t91 32.5t89 -35.5t35 -95.5q0 -32 -12.5 -58.5t-50.5 -61.5q-37 -33 -43 -52
q-6 -20 -6 -72h-46zM462 50v617h-412v-617h412zM512 718v-718h-512v718h512z" />
    <glyph glyph-name=".null" horiz-adv-x="195" 
 />
    <glyph glyph-name=".null" horiz-adv-x="195" 
 />
    <glyph glyph-name="nonmarkingreturn" unicode="&#xd;" horiz-adv-x="0" 
 />
    <glyph glyph-name="space" unicode=" " horiz-adv-x="195" 
 />
    <glyph glyph-name="exclam" unicode="!" horiz-adv-x="314" 
d="M99 228v480h115v-480h-115zM225 65q0 -31 -19.5 -52t-48.5 -21q-30 0 -49 21t-19 52q0 29 19 51t49 22q29 0 48.5 -22t19.5 -51z" />
    <glyph glyph-name="quotedbl" unicode="&#x22;" horiz-adv-x="371" 
d="M215 449v259h82v-259h-82zM74 449v259h83v-259h-83z" />
    <glyph glyph-name="numbersign" unicode="#" horiz-adv-x="399" 
d="M301 421l-11 -133h55v-74h-63l-19 -214h-64l19 214h-63l-19 -214h-65l19 214h-62v74h69l13 133h-63v74h70l19 213h65l-19 -213h63l19 213h65l-20 -213h62v-74h-70zM174 421l-12 -133h63l13 133h-64z" />
    <glyph glyph-name="dollar" unicode="$" 
d="M270 -81h-51v82q-45 2 -92.5 21t-81.5 49l58 83q26 -25 57.5 -40t58.5 -16v213q-32 12 -61.5 28t-52 39t-36 55t-13.5 77t13 80t36 60t53 39t65 17v80h51v-79q43 -1 85.5 -16t75.5 -47l-54 -81q-20 21 -49 35t-58 14v-205q33 -14 64 -30t54.5 -39.5t38 -56.5t14.5 -81
q0 -45 -13 -81t-36.5 -61.5t-55.5 -40.5t-70 -16v-82zM221 611q-24 -3 -44 -26.5t-20 -65.5q0 -22 5 -37t13.5 -26t20 -18.5t25.5 -13.5v187zM341 195q0 45 -20.5 66.5t-48.5 34.5v-199q29 3 49 28t20 70z" />
    <glyph glyph-name="percent" unicode="%" horiz-adv-x="666" 
d="M308 533q0 -40 -9.5 -74t-27 -58.5t-43.5 -38.5t-59 -14q-32 0 -57.5 14t-43.5 38.5t-27.5 58.5t-9.5 74t9.5 74.5t27 59.5t43 39t58.5 14t59 -14t43.5 -39t27 -59.5t9.5 -74.5zM224 534q0 47 -14 78t-41 31q-26 0 -40 -31t-14 -78q0 -45 14 -77t40 -32q27 0 41 32t14 77
zM639 173q0 -40 -9.5 -74t-27.5 -58.5t-43.5 -38.5t-58.5 -14q-32 0 -58 14t-44 38.5t-27.5 58.5t-9.5 74t9.5 74.5t27.5 59.5t43.5 39t58.5 14t58.5 -14t43.5 -39t27.5 -59.5t9.5 -74.5zM554 174q0 47 -13.5 78t-40.5 31t-40.5 -31t-13.5 -78q0 -45 13.5 -77t40.5 -32
t40.5 32t13.5 77zM220 -22l-62 22l291 737l62 -22z" />
    <glyph glyph-name="ampersand" unicode="&#x26;" horiz-adv-x="568" 
d="M426 0l-51 74q-20 -37 -57.5 -63.5t-95.5 -26.5q-85 0 -136 54.5t-51 154.5q0 73 34 122t85 79q-28 40 -41 76.5t-13 79.5q0 41 13 74t35.5 56t54 35.5t67.5 12.5q35 0 64 -11.5t50 -33t33 -52.5t12 -70q0 -34 -11 -62t-29 -51t-42 -42t-50 -35l81 -117l54 131h118
l-105 -216l119 -169h-138zM325 554q0 36 -14 59t-41 23t-43.5 -25t-16.5 -61q0 -31 10 -57t30 -54q30 20 52.5 47.5t22.5 67.5zM207 316q-22 -14 -41 -42t-19 -73q0 -53 23.5 -83.5t61.5 -30.5q32 0 53 22.5t30 48.5z" />
    <glyph glyph-name="quotesingle" unicode="'" horiz-adv-x="230" 
d="M74 449v259h82v-259h-82z" />
    <glyph glyph-name="parenleft" unicode="(" horiz-adv-x="268" 
d="M144 -171q-29 48 -51.5 103t-37.5 114t-23 120.5t-8 121.5t8 121.5t23 120.5t37.5 114t51.5 103l78 -36q-26 -44 -46 -95t-34 -105.5t-21 -111t-7 -111.5t7 -111.5t21 -111t34 -105.5t46 -95z" />
    <glyph glyph-name="parenright" unicode=")" horiz-adv-x="268" 
d="M46 -135q26 44 46 95t34 105.5t21 111t7 111.5t-7 111.5t-21 111t-34 105.5t-46 95l78 36q29 -48 51.5 -103t37.5 -114t23 -120.5t8 -121.5t-8 -121.5t-23 -120.5t-37.5 -114t-51.5 -103l-78 36v0z" />
    <glyph glyph-name="asterisk" unicode="*" horiz-adv-x="451" 
d="M296 493l78 -114l-70 -50l-78 116l-77 -113l-70 50l79 112l-126 43l29 78l123 -44v137h86v-137l124 42l26 -79z" />
    <glyph glyph-name="plus" unicode="+" horiz-adv-x="666" 
d="M282 354v220h102v-220h220v-102h-220v-220h-102v220h-220v102h220z" />
    <glyph glyph-name="comma" unicode="," horiz-adv-x="245" 
d="M120 -124h-89l58 269h107z" />
    <glyph glyph-name="hyphen" unicode="-" horiz-adv-x="238" 
d="M33 225v88h172v-88h-172z" />
    <glyph glyph-name="period" unicode="." horiz-adv-x="245" 
d="M191 65q0 -31 -19.5 -52t-49.5 -21t-49 21t-19 52q0 30 19 52t49 22t49.5 -22t19.5 -52z" />
    <glyph glyph-name="slash" unicode="/" horiz-adv-x="261" 
d="M73 -36l-67 15l186 780l66 -15z" />
    <glyph glyph-name="zero" unicode="0" 
d="M464 354q0 -61 -8.5 -126t-32 -119t-65.5 -88.5t-108 -34.5t-107.5 34.5t-65.5 88.5t-32.5 119t-8.5 126t8.5 126t32.5 119t65.5 88.5t107.5 34.5t108 -34.5t65.5 -88.5t32 -119t8.5 -126zM343 354q0 36 -3 81.5t-12.5 85t-28 67t-49.5 27.5t-49.5 -27.5t-28 -67
t-12.5 -85t-3 -81.5t3 -81.5t12.5 -85.5t28 -67t49.5 -27t49.5 27t28 67t12.5 85.5t3 81.5z" />
    <glyph glyph-name="one" unicode="1" 
d="M231 0v569l-118 -89l-54 93l182 135h107v-708h-117z" />
    <glyph glyph-name="two" unicode="2" 
d="M440 521q0 -34 -8.5 -63.5t-23.5 -57t-34.5 -54l-40.5 -54.5l-146 -187h244v-105h-382v109l205 259q30 40 48 76.5t18 72.5q0 42 -19 71t-58 29q-35 0 -58 -26t-30 -75l-113 11q13 97 68 146t138 49q46 0 81.5 -15t60 -42t37.5 -64t13 -80z" />
    <glyph glyph-name="three" unicode="3" 
d="M448 200q0 -47 -15 -86.5t-42 -68t-65.5 -44t-84.5 -15.5q-80 0 -135 40.5t-75 120.5l106 28q11 -38 35.5 -61.5t63.5 -23.5q25 0 43 10t30 26.5t17.5 37t5.5 41.5q0 57 -32 86t-83 29h-30v93h33q45 0 71.5 28.5t26.5 79.5q0 17 -4.5 34.5t-14.5 31.5t-26 23t-38 9
q-29 0 -49 -19t-31 -48l-104 29q12 37 33 64t47 44t55 25t58 8q39 0 73 -12.5t60 -36.5t41 -58.5t15 -78.5q0 -60 -27 -105t-76 -58v-3q54 -14 86 -60.5t32 -109.5z" />
    <glyph glyph-name="four" unicode="4" 
d="M391 154v-154h-108v154h-256v105l214 449h150v-454h78v-100h-78zM286 591h-2l-151 -337h153v337z" />
    <glyph glyph-name="five" unicode="5" 
d="M446 229q0 -60 -16 -105t-43.5 -76t-65.5 -46.5t-82 -15.5q-75 0 -127.5 40t-72.5 117l103 34q12 -38 35.5 -61.5t58.5 -23.5q44 0 68.5 36.5t24.5 96.5q0 65 -31 100t-83 35q-30 0 -67.5 -9t-63.5 -23l12 380h325v-105h-223l-7 -165q14 7 32.5 10.5t32.5 3.5
q46 0 81.5 -16t59.5 -45.5t36.5 -70.5t12.5 -91z" />
    <glyph glyph-name="six" unicode="6" 
d="M462 230q0 -57 -16 -102.5t-44 -77t-67 -48t-85 -16.5q-47 0 -86 16.5t-67 47.5t-43.5 76t-15.5 101q0 58 15.5 108.5t40.5 98.5l140 274h131l-144 -270l1 -1q11 10 28.5 15t33.5 5q35 0 67.5 -13.5t57 -41t39 -70.5t14.5 -102zM348 231q0 62 -24 102t-72 40
q-23 0 -41 -11t-31 -30.5t-20 -45.5t-7 -57q0 -65 26 -104.5t72 -39.5t71.5 40.5t25.5 105.5z" />
    <glyph glyph-name="seven" unicode="7" 
d="M219 0h-127l219 601h-260v107h385v-94z" />
    <glyph glyph-name="eight" unicode="8" 
d="M464 196q0 -46 -15 -84.5t-42.5 -66.5t-67 -43.5t-88.5 -15.5t-88 15.5t-66 43.5t-41.5 66.5t-14.5 84.5q0 72 32.5 116.5t80.5 60.5v2q-48 20 -72.5 61t-24.5 98q0 37 12 71t36 60t60.5 41.5t85.5 15.5t86 -15.5t62 -41.5t37.5 -60t12.5 -71q0 -57 -24.5 -98t-71.5 -61
v-2q48 -17 79.5 -61t31.5 -116zM332 526q0 47 -21.5 77t-59.5 30q-39 0 -59.5 -30t-20.5 -77q0 -22 5.5 -42t16 -35t25.5 -24t33 -9q19 0 34 9t25.5 24t16 35t5.5 42zM342 202q0 55 -25 89.5t-66 34.5q-40 0 -65 -34.5t-25 -89.5q0 -53 23.5 -88t66.5 -35q44 0 67.5 35
t23.5 88z" />
    <glyph glyph-name="nine" unicode="9" 
d="M39 483q0 56 16 100.5t44 75t67 47t85 16.5q47 0 86 -16t67 -46.5t43.5 -75t15.5 -100.5q0 -58 -15.5 -109t-40.5 -99l-140 -276h-131l150 279l-1 1q-14 -11 -31 -15.5t-36 -4.5q-35 0 -67.5 13.5t-57.5 41t-39.5 69.5t-14.5 99zM153 485q0 -61 24 -100t72 -39
q45 0 72 40t27 100q0 63 -26 101t-72 38t-71.5 -39t-25.5 -101z" />
    <glyph glyph-name="colon" unicode=":" horiz-adv-x="280" 
d="M204 442q0 -30 -18.5 -49.5t-45.5 -19.5q-29 0 -46.5 19.5t-17.5 49.5q0 28 17.5 48t46.5 20q28 0 46 -20t18 -48zM204 67q0 -29 -18.5 -49t-45.5 -20q-29 0 -46.5 20t-17.5 49q0 28 17.5 48.5t46.5 20.5q28 0 46 -20.5t18 -48.5z" />
    <glyph glyph-name="semicolon" unicode=";" horiz-adv-x="280" 
d="M204 442q0 -30 -18.5 -49.5t-45.5 -19.5q-29 0 -46.5 19.5t-17.5 49.5q0 28 17.5 48t46.5 20q28 0 46 -20t18 -48zM124 -124h-84l59 267h101z" />
    <glyph glyph-name="less" unicode="&#x3c;" horiz-adv-x="666" 
d="M80 267v72l506 225v-110l-338 -151l338 -151v-110z" />
    <glyph glyph-name="equal" unicode="=" horiz-adv-x="666" 
d="M586 444v-102h-506v102h506zM586 264v-102h-506v102h506z" />
    <glyph glyph-name="greater" unicode="&#x3e;" horiz-adv-x="666" 
d="M586 339v-72l-506 -225v110l338 151l-338 151v110z" />
    <glyph glyph-name="question" unicode="?" horiz-adv-x="400" 
d="M248 226h-101v46q0 46 15.5 82t49.5 68l19 21q17 20 29.5 40.5t12.5 49.5q0 43 -18.5 67.5t-53.5 24.5q-20 0 -34.5 -8.5t-24.5 -22.5t-16 -31t-8 -33l-98 19q6 37 19.5 69.5t36.5 56.5t55.5 37.5t74.5 13.5q80 0 128.5 -48t48.5 -137q0 -31 -7.5 -56t-20 -45.5
t-28.5 -38.5t-33 -34q-30 -29 -38 -52.5t-8 -55.5v-33zM274 65q0 -31 -20 -52t-50 -21q-29 0 -48.5 21t-19.5 52q0 30 19.5 52t48.5 22q30 0 50 -22t20 -52z" />
    <glyph glyph-name="at" unicode="@" horiz-adv-x="640" 
d="M606 405q0 -52 -11 -97t-31.5 -78t-49.5 -51.5t-65 -18.5q-32 0 -51.5 17t-20.5 52h-2q-5 -12 -13 -24t-19.5 -22t-26 -16.5t-33.5 -6.5q-26 0 -46 13t-33.5 35t-20.5 51.5t-7 62.5q0 43 9.5 85.5t27.5 76t45 54.5t62 21q33 0 51.5 -19.5t22.5 -45.5h3l8 40h72l-29 -151
q-6 -32 -9 -60t-3 -42q0 -18 6 -30t23 -12q31 0 52.5 45t21.5 119q0 59 -14 106.5t-41 81t-65.5 51.5t-87.5 18q-51 0 -92 -24.5t-70 -66.5t-44.5 -97.5t-15.5 -117.5q0 -66 15.5 -121.5t45 -96t72 -63t97.5 -22.5q54 0 100.5 22.5t80.5 59.5l39 -58q-45 -47 -100 -70
t-127 -23t-127 27.5t-93 77t-57.5 117.5t-19.5 149q0 79 21 147t59.5 118.5t93 79t122.5 28.5q130 0 202.5 -83.5t72.5 -237.5zM377 400q0 33 -9.5 57t-36.5 24q-18 0 -32 -14.5t-23.5 -37.5t-14.5 -52t-5 -57q0 -35 11.5 -58t38.5 -23q18 0 31.5 17.5t22 42t13 52.5t4.5 49
z" />
    <glyph glyph-name="A" unicode="A" horiz-adv-x="506" 
d="M379 0l-35 150h-186l-36 -150h-120l176 708h153l173 -708h-125zM254 595h-4l-77 -351h156z" />
    <glyph glyph-name="B" unicode="B" horiz-adv-x="519" 
d="M481 198q0 -56 -18.5 -93.5t-47 -61t-64 -33.5t-69.5 -10h-210v708h188q31 0 66 -7.5t64 -27t48 -54t19 -89.5q0 -66 -28 -104t-65 -53v-2q20 -5 40.5 -17t37.5 -33.5t28 -52t11 -70.5zM349 511q0 27 -8.5 45.5t-22 30t-31.5 16.5t-37 5h-66v-197h68q18 0 35.5 5.5
t31 17.5t22 31t8.5 46zM366 208q0 31 -10 52.5t-26 35t-35 19.5t-38 6h-73v-221h76q22 0 41 6.5t33.5 20t23 33.5t8.5 48z" />
    <glyph glyph-name="C" unicode="C" horiz-adv-x="496" 
d="M483 76q-28 -42 -71.5 -68t-109.5 -26q-60 0 -108.5 28t-82 77.5t-52 117.5t-18.5 149t18.5 149.5t52.5 118t82.5 77t107.5 27.5q61 0 107 -22.5t75 -64.5l-69 -84q-41 59 -106 59q-36 0 -63 -20.5t-45 -55.5t-27 -82.5t-9 -101.5q0 -53 9 -100.5t27 -82.5t45.5 -55.5
t64.5 -20.5q35 0 60.5 18t42.5 44l69 -81v0z" />
    <glyph glyph-name="D" unicode="D" horiz-adv-x="569" 
d="M527 353q0 -168 -70.5 -260.5t-207.5 -92.5h-177v708h178q136 0 206.5 -93.5t70.5 -261.5zM407 353q0 63 -11.5 110t-32.5 78t-50 46.5t-63 15.5h-57v-498h57q34 0 63 15.5t50 46.5t32.5 77.5t11.5 108.5z" />
    <glyph glyph-name="E" unicode="E" horiz-adv-x="436" 
d="M72 0v708h317v-106h-202v-188h187v-98h-187v-209h212v-107h-327z" />
    <glyph glyph-name="F" unicode="F" horiz-adv-x="417" 
d="M192 600v-193h182v-103h-181v-304h-121v708h317v-108h-197z" />
    <glyph glyph-name="G" unicode="G" horiz-adv-x="549" 
d="M493 43q-32 -26 -76.5 -42t-106.5 -16q-63 0 -113 26.5t-84.5 75.5t-53 117t-18.5 151q0 81 18 149t52 117.5t82 77t108 27.5q63 0 109 -22.5t75 -63.5l-69 -84q-40 58 -108 58q-37 0 -64.5 -21t-45.5 -56.5t-27 -82.5t-9 -99q0 -54 9 -101.5t27 -83t45.5 -55.5t65.5 -20
q24 0 43.5 5.5t31.5 14.5v183h-86v104h195v-359v0z" />
    <glyph glyph-name="H" unicode="H" horiz-adv-x="594" 
d="M403 0v314h-212v-314h-119v708h119v-287h212v287h119v-708h-119z" />
    <glyph glyph-name="I" unicode="I" horiz-adv-x="264" 
d="M72 0v708h120v-708h-120z" />
    <glyph glyph-name="J" unicode="J" horiz-adv-x="416" 
d="M349 206q0 -106 -44.5 -165t-139.5 -59q-69 0 -114 37.5t-60 100.5l100 43q6 -26 23.5 -47.5t46.5 -21.5q41 0 55 33t14 90v491h119v-502v0z" />
    <glyph glyph-name="K" unicode="K" horiz-adv-x="530" 
d="M384 0l-189 344h-3v-344h-120v708h120v-307h3l180 307h135l-208 -326l221 -382h-139z" />
    <glyph glyph-name="L" unicode="L" horiz-adv-x="394" 
d="M72 0v708h121v-597h195v-111h-316z" />
    <glyph glyph-name="M" unicode="M" horiz-adv-x="746" 
d="M558 0l2 544h-3l-142 -544h-94l-139 544h-3l2 -544h-109v708h161l136 -518h4l133 518h169v-708h-117z" />
    <glyph glyph-name="N" unicode="N" horiz-adv-x="586" 
d="M382 0l-201 500h-3l2 -500h-108v708h137l199 -503h3l-1 503h104v-708h-132z" />
    <glyph glyph-name="O" unicode="O" horiz-adv-x="591" 
d="M551 355q0 -84 -17.5 -152.5t-50.5 -117.5t-80.5 -76t-106.5 -27q-60 0 -107 27t-80 76t-50.5 117.5t-17.5 152.5t17 152t50 117t80.5 75.5t107.5 26.5q59 0 106.5 -26.5t80.5 -75.5t50.5 -117t17.5 -152zM427 355q0 54 -8.5 101.5t-25 82t-41 54.5t-56.5 20
q-33 0 -57.5 -20t-41 -54.5t-24.5 -82t-8 -101.5t8 -101.5t24.5 -82.5t41 -55t57.5 -20t57.5 20t41 55t24.5 82.5t8 101.5z" />
    <glyph glyph-name="P" unicode="P" horiz-adv-x="495" 
d="M468 499q0 -54 -16.5 -94.5t-43.5 -67.5t-62 -40t-72 -13h-84v-284h-118v708h196q34 0 70 -10t64.5 -34.5t47 -64.5t18.5 -100zM354 498q0 57 -27 83t-69 26h-68v-225h68q42 0 69 29.5t27 86.5z" />
    <glyph glyph-name="Q" unicode="Q" horiz-adv-x="598" 
d="M293 0q-58 0 -104.5 24.5t-79.5 71t-50.5 113t-17.5 150.5q0 82 18 150t51.5 116t81 74.5t105.5 26.5t105 -26.5t80 -74.5t51 -114.5t18 -146.5q0 -42 -7.5 -83t-21 -76t-31 -61t-36.5 -39v-4l126 2v-103h-288zM428 359q0 53 -8.5 99t-25.5 79.5t-41.5 53t-55.5 19.5
q-32 0 -56.5 -19.5t-41.5 -53t-25.5 -79.5t-8.5 -99t9 -99t26 -79.5t41.5 -53t56.5 -19.5t56.5 20.5t41 55t24.5 80t8 95.5z" />
    <glyph glyph-name="R" unicode="R" horiz-adv-x="513" 
d="M365 0l-110 302h-67v-302h-116v708h202q44 0 81 -11.5t63.5 -36.5t41.5 -63t15 -91q0 -41 -10.5 -72.5t-26.5 -53.5t-35.5 -35.5t-38.5 -18.5l127 -326h-126zM357 500q0 32 -9 53t-23.5 33t-32.5 17t-36 5h-68v-218h68q44 0 72.5 27.5t28.5 82.5z" />
    <glyph glyph-name="S" unicode="S" horiz-adv-x="449" 
d="M350 571q-39 47 -98 47q-17 0 -33 -5.5t-29 -17.5t-20.5 -31t-7.5 -45q0 -45 27 -69.5t71 -46.5q26 -13 53 -30t49 -41t36 -57t14 -78q0 -52 -16.5 -92t-44 -67.5t-64.5 -41.5t-78 -14q-59 0 -109 23t-80 58l65 88q23 -28 55.5 -44t66.5 -16q38 0 63 26t25 73
q0 46 -30 73t-76 50q-29 14 -54.5 31t-45 40.5t-31 55t-11.5 75.5q0 55 17.5 94.5t46 65.5t64.5 38.5t73 12.5q54 0 96.5 -17.5t71.5 -51.5z" />
    <glyph glyph-name="T" unicode="T" horiz-adv-x="380" 
d="M249 606v-606h-118v606h-133v102h384v-102h-133z" />
    <glyph glyph-name="U" unicode="U" horiz-adv-x="567" 
d="M506 251q0 -56 -12 -105t-39 -85.5t-69.5 -57.5t-103.5 -21t-103 21t-68.5 57.5t-38 85.5t-11.5 105v457h120v-446q0 -33 4.5 -63.5t16 -53.5t31.5 -36.5t51 -13.5t51 13.5t31.5 36.5t16 53.5t4.5 63.5v446h119v-457v0z" />
    <glyph glyph-name="V" unicode="V" horiz-adv-x="507" 
d="M328 0h-152l-173 708h134l118 -568h3l118 568h128z" />
    <glyph glyph-name="W" unicode="W" horiz-adv-x="769" 
d="M621 0h-138l-98 532h-2l-98 -532h-138l-135 708h122l91 -550h4l95 550h126l98 -550h2l91 550h116z" />
    <glyph glyph-name="X" unicode="X" horiz-adv-x="501" 
d="M367 0l-118 271l-119 -271h-125l177 373l-160 335h125l105 -244l104 244h123l-161 -335l178 -373h-129z" />
    <glyph glyph-name="Y" unicode="Y" horiz-adv-x="462" 
d="M289 271v-271h-118v271l-177 437h130l106 -316l3 2l108 314h127z" />
    <glyph glyph-name="Z" unicode="Z" horiz-adv-x="431" 
d="M25 0v99l238 503h-222v106h354v-97l-237 -503h237v-108h-370z" />
    <glyph glyph-name="bracketleft" unicode="[" horiz-adv-x="268" 
d="M38 -156v888h179v-79h-85v-730h85v-79h-179z" />
    <glyph glyph-name="backslash" unicode="\" horiz-adv-x="261" 
d="M72 759l186 -780l-67 -15l-185 780z" />
    <glyph glyph-name="bracketright" unicode="]" horiz-adv-x="268" 
d="M51 -77h85v730h-85v79h178v-888h-178v79z" />
    <glyph glyph-name="asciicircum" unicode="^" horiz-adv-x="666" 
d="M69 343l223 365h82l223 -365h-118l-147 239l-145 -239h-118z" />
    <glyph glyph-name="underscore" unicode="_" 
d="M500 -150h-500v75h500v-75z" />
    <glyph glyph-name="grave" unicode="`" horiz-adv-x="252" 
d="M109 575l-109 144h104l90 -144h-85z" />
    <glyph glyph-name="a" unicode="a" horiz-adv-x="435" 
d="M275 239h-33q-21 0 -40.5 -3.5t-34.5 -13.5t-24 -27.5t-9 -44.5q0 -40 17.5 -59t40.5 -19t39 13t25.5 33t14 44.5t4.5 47.5v29zM279 76q-11 -42 -40 -65.5t-77 -23.5q-22 0 -45 8t-41.5 26.5t-30.5 48t-12 71.5q0 54 19.5 88.5t50 54.5t68 27.5t73.5 7.5h28v16
q0 51 -20.5 73.5t-54.5 22.5q-29 0 -52.5 -13.5t-40.5 -35.5l-54 71q28 35 71 54.5t85 19.5q47 0 79.5 -15t52.5 -43.5t28.5 -70.5t8.5 -95v-303h-94v76h-2z" />
    <glyph glyph-name="b" unicode="b" horiz-adv-x="499" 
d="M69 756h113v-310h2q11 35 40 58t71 23q40 0 71 -20t52 -55.5t31.5 -84.5t10.5 -107q0 -59 -11 -109.5t-32 -88t-52 -58.5t-70 -21q-50 0 -76 26t-38 64h-2v-73h-110v756zM178 255q0 -36 5.5 -67.5t16 -55t26.5 -37t37 -13.5q22 0 37.5 13.5t25.5 37t15 55t5 67.5t-5 68
t-15 55.5t-25.5 37t-37.5 13.5q-21 0 -37 -13.5t-26.5 -37t-16 -55.5t-5.5 -68z" />
    <glyph glyph-name="c" unicode="c" horiz-adv-x="351" 
d="M348 30q-21 -22 -51 -34.5t-68 -12.5q-47 0 -83 20t-60 56.5t-36 86.5t-12 110t12.5 110t37 86t60 55.5t82.5 19.5q41 0 70.5 -14t46.5 -31l-51 -85q-11 12 -25.5 20t-35.5 8q-42 0 -63.5 -46.5t-21.5 -122.5t22 -122t67 -46q21 0 36 8t26 22l47 -88v0z" />
    <glyph glyph-name="d" unicode="d" horiz-adv-x="496" 
d="M319 0v73h-2q-11 -38 -37.5 -64t-76.5 -26q-39 0 -70 21t-52 58.5t-32 88t-11 109.5q0 58 10.5 107t31.5 84.5t51.5 55.5t71.5 20q42 0 71 -23.5t40 -58.5h3v311h111v-756h-109zM321 255q0 37 -5.5 68.5t-16 55t-27 37t-37.5 13.5q-22 0 -38 -13.5t-26 -37t-15 -55
t-5 -68.5q0 -36 5 -67.5t15 -55t26 -37t38 -13.5t38 13.5t26.5 37t16 55t5.5 67.5z" />
    <glyph glyph-name="e" unicode="e" horiz-adv-x="448" 
d="M149 226q0 -30 6 -56.5t17.5 -46t28 -31t38.5 -11.5q31 0 49.5 20t29.5 46l83 -48q-22 -53 -62.5 -84.5t-103.5 -31.5q-89 0 -143 70t-54 201q0 61 14 111.5t40 86.5t61.5 55.5t79.5 19.5q49 0 83.5 -20t56 -54.5t31.5 -81.5t10 -102v-43h-265zM306 308q0 57 -18 92.5
t-56 35.5q-22 0 -37.5 -13t-25 -32.5t-14.5 -42t-5 -40.5h156z" />
    <glyph glyph-name="f" unicode="f" horiz-adv-x="269" 
d="M277 677q-13 5 -30 5q-19 0 -31 -8.5t-19 -22.5t-10 -32t-3 -37v-72h82v-90h-81v-420h-110v420h-64v90h64v74q0 40 8.5 75.5t27 61.5t48.5 41t72 15q12 0 27 -2t26 -6z" />
    <glyph glyph-name="g" unicode="g" horiz-adv-x="493" 
d="M426 14q0 -57 -11 -103.5t-36 -80t-64 -52t-95 -18.5q-53 0 -101 20.5t-79 54.5l61 81q22 -24 51.5 -40t64.5 -16q28 0 47 11.5t30.5 31t16.5 46t5 57.5v62h-2q-11 -34 -40.5 -57.5t-71.5 -23.5q-41 0 -72 20t-51.5 56t-31 85t-10.5 107q0 59 11 109t32 86t51.5 56.5
t70.5 20.5q49 0 75 -25.5t38 -63.5h3v72h108v-496zM319 256q0 36 -5.5 68t-16 55t-26.5 36.5t-37 13.5q-22 0 -38 -13.5t-26 -36.5t-15 -55t-5 -68t5 -68t15 -55.5t26 -37t38 -13.5q21 0 37 13.5t26.5 37t16 55.5t5.5 68z" />
    <glyph glyph-name="h" unicode="h" horiz-adv-x="503" 
d="M326 0v320q0 19 -2 38.5t-8.5 35.5t-19 25.5t-32.5 9.5q-38 0 -60.5 -38t-22.5 -96v-295h-113v756h113v-325h2q13 39 44.5 67.5t79.5 28.5q42 0 68 -17.5t40 -46.5t19 -66.5t5 -76.5v-320h-113z" />
    <glyph glyph-name="i" unicode="i" horiz-adv-x="248" 
d="M190 658q0 -30 -19 -50t-47 -20q-29 0 -47.5 20t-18.5 50q0 29 18.5 50t47.5 21t47.5 -21t18.5 -50zM68 0v510h112v-510h-112z" />
    <glyph glyph-name="j" unicode="j" horiz-adv-x="249" 
d="M191 658q0 -30 -18.5 -50t-47.5 -20t-47 20t-18 50q0 29 18 50t47 21t47.5 -21t18.5 -50zM182 -50q0 -41 -8 -75.5t-26.5 -60t-48.5 -40t-75 -14.5q-11 0 -25 1.5t-25 4.5l8 102q7 -2 14 -3t13 -1q35 0 48 27.5t13 67.5v551h112v-560z" />
    <glyph glyph-name="k" unicode="k" horiz-adv-x="453" 
d="M319 0l-135 245h-2v-245h-113v756h113v-461h2l130 215h131l-160 -235l167 -275h-133z" />
    <glyph glyph-name="l" unicode="l" horiz-adv-x="250" 
d="M68 0v756h114v-756h-114z" />
    <glyph glyph-name="m" unicode="m" horiz-adv-x="757" 
d="M183 429q11 41 42.5 69.5t81.5 28.5q27 0 47 -8t34 -21.5t23.5 -31.5t14.5 -37h2q6 18 17.5 35.5t28 31.5t38.5 22.5t50 8.5q42 0 67.5 -17.5t39.5 -46.5t19 -66.5t5 -76.5v-320h-113v320q0 19 -2 38.5t-8.5 35.5t-19 25.5t-32.5 9.5q-38 0 -60.5 -38t-22.5 -96v-295
h-111v320q0 19 -2 38.5t-8.5 35.5t-18.5 25.5t-32 9.5q-38 0 -59.5 -38t-21.5 -95v-296h-112v510h111v-81h2v0z" />
    <glyph glyph-name="n" unicode="n" horiz-adv-x="505" 
d="M181 510v-81h2q14 41 46.5 69.5t80.5 28.5q42 0 67.5 -17.5t39.5 -46.5t19 -66.5t5 -76.5v-320h-113v320q0 19 -2 38.5t-8.5 35.5t-19 25.5t-32.5 9.5q-38 0 -60.5 -38t-22.5 -96v-295h-113v510h111z" />
    <glyph glyph-name="o" unicode="o" horiz-adv-x="468" 
d="M430 254q0 -60 -13.5 -110t-39 -85.5t-61.5 -55.5t-82 -20t-82 20t-61.5 55.5t-39 85.5t-13.5 110q0 61 13.5 111.5t38.5 86.5t61.5 55.5t82.5 19.5t82 -19.5t61.5 -55.5t39 -86.5t13.5 -111.5zM318 255q0 37 -5 68.5t-15.5 55t-26 37t-37.5 13.5t-37.5 -13.5t-25.5 -37
t-15 -55t-5 -68.5q0 -36 5 -68t15 -55t25.5 -36.5t37.5 -13.5t38 13.5t26 36.5t15 55t5 68z" />
    <glyph glyph-name="p" unicode="p" horiz-adv-x="496" 
d="M458 256q0 -59 -10.5 -108.5t-31.5 -86.5t-52 -57.5t-71 -20.5q-44 0 -72.5 24.5t-39.5 59.5h-2v-307h-111v750h109v-72h2q13 38 39 63.5t75 25.5q40 0 70.5 -20.5t51.5 -57t32 -86t11 -107.5zM345 256q0 36 -5 68t-15 55t-26 36.5t-38 13.5q-21 0 -37 -13.5t-26.5 -36.5
t-16 -55t-5.5 -68t5.5 -68t16 -55.5t26.5 -37t37 -13.5q22 0 38 13.5t26 37t15 55.5t5 68z" />
    <glyph glyph-name="q" unicode="q" horiz-adv-x="496" 
d="M317 -240v307h-2q-11 -35 -39.5 -59.5t-72.5 -24.5q-40 0 -71 20.5t-52 57.5t-31.5 86.5t-10.5 108.5q0 58 11 107.5t32 86t51.5 57t70.5 20.5q49 0 75 -25.5t39 -63.5h2v72h109v-750h-111zM321 256q0 36 -5.5 68t-16 55t-26.5 36.5t-38 13.5t-38 -13.5t-26 -36.5
t-15 -55t-5 -68t5 -68t15 -55.5t26 -37t38 -13.5q21 0 37.5 13.5t27 37t16 55.5t5.5 68z" />
    <glyph glyph-name="r" unicode="r" horiz-adv-x="307" 
d="M183 412q13 57 41 86t66 29h8.5t8.5 -2l-6 -116q-11 3 -24 3q-22 0 -39 -13.5t-29 -35.5t-18 -50t-6 -57v-256h-115v510h111v-98h2v0z" />
    <glyph glyph-name="s" unicode="s" horiz-adv-x="371" 
d="M285 395q-14 19 -35 31t-48 12q-25 0 -42 -17.5t-17 -46.5q0 -30 18 -43.5t57 -27.5q22 -8 43.5 -19.5t39 -29.5t28 -43.5t10.5 -60.5q0 -42 -13.5 -73.5t-36.5 -52.5t-52.5 -31t-61.5 -10q-48 0 -89.5 19t-70.5 51l61 72q18 -21 42 -36t56 -15q28 0 44 19t16 50
q0 36 -23.5 52t-62.5 30q-20 7 -39 17t-35 27t-25.5 41.5t-9.5 59.5q0 37 13.5 66t35.5 49.5t51 31t60 10.5q46 0 83 -16.5t63 -42.5z" />
    <glyph glyph-name="t" unicode="t" horiz-adv-x="284" 
d="M182 423v-262q0 -42 12.5 -61t38.5 -19q9 0 18.5 2t16.5 6l2 -88q-12 -6 -32 -10t-40 -4q-65 0 -93.5 38.5t-28.5 110.5v287h-64v87h64v130h106v-130h89v-87h-89z" />
    <glyph glyph-name="u" unicode="u" horiz-adv-x="505" 
d="M324 0v81h-2q-14 -41 -46.5 -69.5t-80.5 -28.5q-42 0 -67.5 17.5t-39.5 46.5t-19 66.5t-5 76.5v320h113v-320q0 -20 2 -39t8.5 -34.5t19 -25t32.5 -9.5q38 0 60.5 37.5t22.5 95.5v295h113v-510h-111z" />
    <glyph glyph-name="v" unicode="v" horiz-adv-x="425" 
d="M280 0h-135l-135 510h119l86 -391h2l83 391h115z" />
    <glyph glyph-name="w" unicode="w" horiz-adv-x="635" 
d="M509 0h-121l-73 349h-1l-73 -349h-118l-109 510h116l62 -375h2l73 375h100l75 -375h2l63 375h113z" />
    <glyph glyph-name="x" unicode="x" horiz-adv-x="421" 
d="M290 0l-79 186l-81 -186h-124l132 267l-120 243h123l71 -166l70 166h122l-119 -243l130 -267h-125z" />
    <glyph glyph-name="y" unicode="y" horiz-adv-x="427" 
d="M264 -70q-10 -38 -23.5 -69.5t-33.5 -54t-47.5 -34.5t-64.5 -12q-20 0 -38.5 2.5t-30.5 6.5l14 102q8 -3 19.5 -5.5t22.5 -2.5q27 0 41 16.5t21 45.5l15 63l-149 522h119l89 -384h3l81 384h115z" />
    <glyph glyph-name="z" unicode="z" horiz-adv-x="367" 
d="M26 0v95l192 319h-178v96h298v-91l-192 -323h193v-96h-313z" />
    <glyph glyph-name="braceleft" unicode="{" horiz-adv-x="268" 
d="M164 -156q-60 0 -85.5 41t-25.5 110v160q0 27 -4 44.5t-11 27.5t-16.5 14t-21.5 4v86q12 0 21.5 4t16.5 14t11 27.5t4 44.5v160q0 69 25.5 110t85.5 41h58v-79h-32q-28 0 -38 -22.5t-10 -57.5v-168q0 -30 -6 -51.5t-15.5 -35t-20.5 -20.5t-21 -9v-2q10 -2 21 -9
t20.5 -20.5t15.5 -35t6 -51.5v-168q0 -35 10 -57.5t38 -22.5h32v-79h-58z" />
    <glyph glyph-name="bar" unicode="|" horiz-adv-x="222" 
d="M162 750v-1000h-102v1000h102z" />
    <glyph glyph-name="braceright" unicode="}" horiz-adv-x="268" 
d="M45 -77h32q29 0 39 22.5t10 57.5v168q0 30 6 51.5t15 35t20 20.5t21 9v2q-10 2 -21 9t-20 20.5t-15 35t-6 51.5v168q0 35 -10 57.5t-39 22.5h-32v79h59q60 0 85.5 -41t25.5 -110v-160q0 -27 4 -44.5t10.5 -27.5t16.5 -14t22 -4v-86q-12 0 -22 -4t-16.5 -14t-10.5 -27.5
t-4 -44.5v-160q0 -69 -25.5 -110t-85.5 -41h-59v79z" />
    <glyph glyph-name="asciitilde" unicode="~" horiz-adv-x="666" 
d="M345 354q21 -14 34.5 -21t23 -11t17.5 -4.5t19 -0.5q24 0 43 16.5t35 46.5l77 -65q-35 -58 -74 -80t-79 -22q-32 0 -60 9.5t-61 30.5q-20 12 -34 19.5t-24.5 11t-18.5 4.5t-16 1q-21 0 -40 -14t-38 -49l-77 65q37 61 75.5 82t77.5 21q37 0 63 -10t57 -30z" />
    <glyph glyph-name="uni00A0" unicode="&#xa0;" horiz-adv-x="195" 
 />
    <glyph glyph-name="exclamdown" unicode="&#xa1;" horiz-adv-x="314" 
d="M214 -186h-115v480h115v-480zM225 457q0 -29 -19.5 -51t-48.5 -22q-30 0 -49 22t-19 51q0 31 19 52t49 21q29 0 48.5 -21t19.5 -52z" />
    <glyph glyph-name="cent" unicode="&#xa2;" 
d="M416 48q-17 -25 -46.5 -41t-64.5 -19v-60h-53v60q-43 3 -76 24t-55 56t-33.5 82.5t-11.5 102.5q0 54 11.5 101.5t33.5 82.5t55 57t76 25v64h53v-64q36 -2 64.5 -16t45.5 -33l-48 -80q-10 11 -26 21t-36 12v-341q20 2 38.5 13.5t30.5 27.5zM253 422q-20 -3 -33.5 -18
t-22.5 -38.5t-13 -53.5t-4 -61q0 -32 4 -61t13 -52t22.5 -37.5t33.5 -17.5v339z" />
    <glyph glyph-name="sterling" unicode="&#xa3;" 
d="M367 411v-91h-123v-212h188v-108h-388v108h86v212h-81v91h81v86q0 41 11 82t35 74t61.5 53.5t91.5 20.5q46 0 79 -14t53 -32l-58 -86q-11 11 -27 18.5t-39 7.5q-27 0 -45 -11.5t-28.5 -30.5t-15 -43.5t-4.5 -49.5v-75h123z" />
    <glyph glyph-name="currency" unicode="&#xa4;" 
d="M415 418q15 -29 23.5 -63t8.5 -73q0 -38 -9 -74t-25 -65l68 -83l-51 -64l-70 85q-45 -39 -109 -39q-30 0 -58 11t-51 29l-71 -86l-52 64l70 86q-14 28 -23.5 63t-9.5 73t8.5 71.5t22.5 62.5l-68 82l52 63l68 -81q23 18 51.5 29.5t60.5 11.5t60.5 -11t50.5 -30l67 81
l52 -63zM251 426q-26 0 -45 -11.5t-32 -31t-19 -45.5t-6 -56t6 -56t19 -45.5t32 -31t45 -11.5t45.5 11.5t32 31t19 45.5t6.5 56t-6.5 56t-19 45.5t-32 31t-45.5 11.5z" />
    <glyph glyph-name="yen" unicode="&#xa5;" 
d="M439 407v-78h-138v-92h138v-78h-138v-159h-114v159h-136v78h136v92h-136v79h99l-134 300h119l112 -293l112 293h117l-133 -301h96z" />
    <glyph glyph-name="brokenbar" unicode="&#xa6;" horiz-adv-x="222" 
d="M162 675v-350h-102v350h102zM162 175v-350h-102v350h102z" />
    <glyph glyph-name="section" unicode="&#xa7;" 
d="M346 275q0 18 -7 31.5t-18.5 24t-26.5 19t-32 16.5l-47 22q-23 -5 -43.5 -24t-20.5 -54q0 -20 6.5 -33.5t17.5 -23.5t26 -17.5t32 -14.5l49 -22q24 5 44 23t20 53zM179 136q-31 13 -54.5 27.5t-39 33.5t-23.5 43.5t-8 57.5q0 28 8.5 50t21.5 39t29 29t31 18
q-31 20 -48 47t-17 73q0 37 14 68.5t39 55t59.5 36.5t75.5 13q63 0 103.5 -20.5t66.5 -56.5l-70 -65q-15 23 -41 36t-56 13q-16 0 -31 -4.5t-27 -14t-19.5 -24.5t-7.5 -36q0 -18 6.5 -30t19.5 -22t30.5 -19t40.5 -19l30 -14q31 -14 56 -30t41.5 -36t25.5 -45t9 -56
q0 -27 -7.5 -48.5t-20.5 -38t-29 -27.5t-34 -17q31 -19 49.5 -49t18.5 -69q0 -49 -17 -83t-44.5 -55.5t-62 -31t-68.5 -9.5q-57 0 -107 20.5t-83 58.5l64 76q23 -29 55.5 -45t69.5 -16q34 0 60 18.5t26 57.5q0 35 -25 55t-73 40z" />
    <glyph glyph-name="dieresis" unicode="&#xa8;" horiz-adv-x="252" 
d="M107 657q0 -28 -17 -47t-43 -19t-42.5 19t-16.5 47q0 27 16.5 46t42.5 19t43 -19t17 -46zM264 657q0 -28 -17.5 -47t-42.5 -19q-26 0 -42.5 19t-16.5 47q0 27 16.5 46t42.5 19t43 -19t17 -46z" />
    <glyph glyph-name="copyright" unicode="&#xa9;" horiz-adv-x="640" 
d="M441 189q-18 -27 -44.5 -44t-63.5 -17t-66.5 16.5t-50 46.5t-31.5 72.5t-11 93.5q0 52 11 94.5t31.5 72.5t49.5 46.5t65 16.5t64 -15.5t45 -41.5l-49 -64q-18 36 -57 36q-17 0 -30 -11t-22 -30.5t-14 -46t-5 -57.5q0 -61 18.5 -102t52.5 -41q20 0 33.5 10.5t22.5 27.5z
M320 -20q-63 0 -115.5 26t-90 75t-58 118.5t-20.5 155.5t20.5 155.5t58 118t90 75t115.5 26.5t115 -26.5t89.5 -75t58.5 -118t21 -155.5t-21 -155.5t-58.5 -118.5t-89.5 -75t-115 -26zM320 686q-54 0 -97 -25t-73 -69t-46 -104.5t-16 -132.5t16 -132.5t46 -104.5t73 -69
t97 -25t97 25t73 69t46 104.5t16 132.5t-16 132.5t-46 104.5t-73 69t-97 25z" />
    <glyph glyph-name="ordfeminine" unicode="&#xaa;" horiz-adv-x="311" 
d="M195 444h-2q-6 -22 -24 -36t-47 -14q-14 0 -28 5t-25.5 16t-18.5 28.5t-7 42.5q0 32 11 53t29 33.5t40.5 17.5t45.5 5h17v9q0 29 -11.5 40t-30.5 11q-15 0 -29.5 -7.5t-25.5 -19.5l-35 49q18 21 44.5 32.5t52.5 11.5q59 0 82 -36.5t23 -101.5v-180h-61v41zM187 542h-18
q-23 0 -41 -10t-18 -41q0 -20 9.5 -30.5t23.5 -10.5q12 0 20.5 7t14 18t7.5 24t2 26v17z" />
    <glyph glyph-name="guillemotleft" unicode="&#xab;" horiz-adv-x="385" 
d="M141 479l64 -34l-88 -189l88 -188l-64 -35l-106 223zM286 479l64 -34l-88 -189l88 -188l-64 -35l-105 223z" />
    <glyph glyph-name="logicalnot" unicode="&#xac;" horiz-adv-x="666" 
d="M502 342h-440v102h542v-297h-102v195z" />
    <glyph glyph-name="uni00AD" unicode="&#xad;" horiz-adv-x="238" 
d="M33 225v88h172v-88h-172z" />
    <glyph glyph-name="registered" unicode="&#xae;" horiz-adv-x="480" 
d="M277 372l-39 98h-15v-98h-59v261h89q31 0 56 -18.5t25 -63.5q0 -28 -11 -45.5t-31 -23.5l46 -110h-61zM275 550q0 17 -9.5 25t-20.5 8h-22v-70h18q14 0 24 8.5t10 28.5zM240 274q-38 0 -69 15.5t-53.5 45t-35 71t-12.5 93.5t12.5 93.5t35 70.5t53.5 45t69 16t69 -16
t53.5 -45t35 -70.5t12.5 -93.5t-12.5 -93.5t-35 -71t-53.5 -45t-69 -15.5zM240 698q-32 0 -58 -15t-44 -41.5t-27.5 -63t-9.5 -79.5t9.5 -79.5t27.5 -63t44 -41.5t58 -15t58 15t44 41.5t27.5 63t9.5 79.5t-9.5 79.5t-27.5 63t-44 41.5t-58 15z" />
    <glyph glyph-name="macron" unicode="&#xaf;" horiz-adv-x="252" 
d="M-11 613v66h274v-66h-274z" />
    <glyph glyph-name="degree" unicode="&#xb0;" horiz-adv-x="320" 
d="M284 563q0 -32 -8.5 -62t-24.5 -53t-39 -37t-52 -14q-30 0 -53 14t-38.5 37t-24 53t-8.5 62t8.5 61.5t24 52t38.5 36t53 13.5q29 0 52 -13.5t39 -36t24.5 -52t8.5 -61.5zM220 563q0 42 -16.5 71.5t-43.5 29.5q-28 0 -44 -29.5t-16 -71.5q0 -45 16 -74t44 -29
q27 0 43.5 29t16.5 74z" />
    <glyph glyph-name="plusminus" unicode="&#xb1;" horiz-adv-x="666" 
d="M286 574h96v-143h204v-102h-204v-143h-96v143h-206v102h206v143zM80 134h506v-102h-506v102z" />
    <glyph glyph-name="twosuperior" unicode="&#xb2;" horiz-adv-x="322" 
d="M297 590q0 -42 -21 -74.5t-47 -64.5l-89 -104h152v-77h-256v80l133 158q18 22 28.5 41t10.5 39q0 22 -10 37.5t-33 15.5q-20 0 -33.5 -15t-16.5 -44l-86 8q9 65 46 97t93 32q62 0 95.5 -35.5t33.5 -93.5z" />
    <glyph glyph-name="threesuperior" unicode="&#xb3;" horiz-adv-x="322" 
d="M301 398q0 -64 -38.5 -100.5t-98.5 -36.5q-54 0 -91 26.5t-50 80.5l81 20q5 -20 20 -35t38 -15q26 0 39.5 19.5t13.5 42.5q0 32 -18.5 48t-48.5 16h-22v68h24q27 0 42 15.5t15 44.5q0 19 -10.5 36t-35.5 17q-17 0 -29.5 -11.5t-17.5 -29.5l-79 21q17 52 54 74t77 22
q25 0 48 -7.5t40 -22.5t27.5 -37t10.5 -50q0 -38 -18 -66t-47 -36v-1q34 -9 54 -37t20 -66z" />
    <glyph glyph-name="acute" unicode="&#xb4;" horiz-adv-x="252" 
d="M143 575h-85l90 144h104z" />
    <glyph glyph-name="mu" unicode="&#xb5;" horiz-adv-x="574" 
d="M188 480v-243q0 -20 2 -44.5t10.5 -46t26 -36t49.5 -14.5q30 0 50.5 10t34 27t19.5 39t6 46v262h120v-480h-114v77h-2q-8 -18 -19.5 -34t-28 -28.5t-38.5 -19.5t-51 -7q-18 0 -36.5 6t-28.5 18v-240h-120v708h120z" />
    <glyph glyph-name="paragraph" unicode="&#xb6;" horiz-adv-x="600" 
d="M246 338q-49 0 -88.5 13.5t-67.5 38t-43.5 58t-15.5 72.5q0 50 17 86t47.5 58.5t73.5 33t95 10.5h269v-834h-90v762h-107v-762h-90v464z" />
    <glyph glyph-name="periodcentered" unicode="&#xb7;" horiz-adv-x="245" 
d="M191 263q0 -31 -19.5 -52t-49.5 -21t-49 21t-19 52q0 30 19 52t49 22t49.5 -22t19.5 -52z" />
    <glyph glyph-name="cedilla" unicode="&#xb8;" horiz-adv-x="252" 
d="M126 -67q12 3 27 3q14 0 28.5 -4t26.5 -13t19.5 -23.5t7.5 -35.5q0 -27 -12 -45t-30 -28.5t-40 -14.5t-41 -4q-23 0 -50.5 4.5t-48.5 15.5l20 50q16 -8 35.5 -12t36.5 -4q8 0 17 2t17 6.5t13 11.5t5 18q0 17 -13.5 24.5t-31.5 7.5q-10 0 -21.5 -2t-20.5 -6l-24 22l61 94
h64z" />
    <glyph glyph-name="onesuperior" unicode="&#xb9;" horiz-adv-x="322" 
d="M145 267v331l-71 -51l-42 73l120 88h88v-441h-95z" />
    <glyph glyph-name="ordmasculine" unicode="&#xba;" horiz-adv-x="311" 
d="M277 556q0 -72 -32 -118t-89 -46q-28 0 -50.5 12t-38 34t-24 52t-8.5 66q0 74 32 119.5t89 45.5t89 -45.5t32 -119.5zM202 557q0 40 -11 68t-35 28t-35 -28t-11 -68q0 -41 11 -68.5t35 -27.5t35 27.5t11 68.5z" />
    <glyph glyph-name="guillemotright" unicode="&#xbb;" horiz-adv-x="385" 
d="M99 33l-64 35l88 188l-88 189l64 34l106 -223zM245 33l-64 35l88 188l-88 189l64 34l105 -223z" />
    <glyph glyph-name="onequarter" unicode="&#xbc;" horiz-adv-x="744" 
d="M660 92v-92h-80v92h-167v76l133 273h114v-275h47v-74h-47zM582 358h-2l-88 -192h90v192zM264 -21l-63 19l278 738l63 -20zM145 267v331l-71 -51l-42 73l120 88h88v-441h-95z" />
    <glyph glyph-name="onehalf" unicode="&#xbd;" horiz-adv-x="744" 
d="M721 320q0 -42 -21 -74.5t-47 -64.5l-89 -104h152v-77h-256v80l133 158q18 22 28.5 41t10.5 39q0 22 -10 37.5t-33 15.5q-20 0 -33.5 -15t-16.5 -44l-86 8q9 65 46 97t93 32q62 0 95.5 -35.5t33.5 -93.5zM264 -21l-63 19l278 738l63 -20zM146 268v336l-73 -52l-39 69
l119 87h84v-440h-91z" />
    <glyph glyph-name="threequarters" unicode="&#xbe;" horiz-adv-x="744" 
d="M660 92v-92h-80v92h-167v76l133 273h114v-275h47v-74h-47zM582 358h-2l-88 -192h90v192zM301 398q0 -64 -38.5 -100.5t-98.5 -36.5q-54 0 -91 26.5t-50 80.5l81 20q5 -20 20 -35t38 -15q26 0 39.5 19.5t13.5 42.5q0 32 -18.5 48t-48.5 16h-22v68h24q27 0 42 15.5t15 44.5
q0 19 -10.5 36t-35.5 17q-17 0 -29.5 -11.5t-17.5 -29.5l-79 21q17 52 54 74t77 22q25 0 48 -7.5t40 -22.5t27.5 -37t10.5 -50q0 -38 -18 -66t-47 -36v-1q34 -9 54 -37t20 -66zM264 -21l-63 19l278 738l63 -20z" />
    <glyph glyph-name="questiondown" unicode="&#xbf;" horiz-adv-x="400" 
d="M152 296h101v-46q0 -46 -15.5 -82t-49.5 -68l-19 -21q-17 -20 -29.5 -40.5t-12.5 -49.5q0 -43 18.5 -67.5t53.5 -24.5q19 0 34 8.5t25 22.5t16 30.5t8 33.5l98 -19q-6 -37 -19.5 -69.5t-36.5 -56.5t-55.5 -37.5t-74.5 -13.5q-80 0 -128.5 48t-48.5 137q0 31 7.5 56
t20 45.5t28.5 38l33 34.5q30 29 38 52.5t8 55.5v33zM126 457q0 31 20 52t50 21q29 0 48.5 -21t19.5 -52q0 -30 -19.5 -52t-48.5 -22q-30 0 -50 22t-20 52z" />
    <glyph glyph-name="Agrave" unicode="&#xc0;" horiz-adv-x="506" 
d="M379 0l-35 150h-186l-36 -150h-120l176 708h153l173 -708h-125zM254 595h-4l-77 -351h156zM235 764l-109 144h104l90 -144h-85z" />
    <glyph glyph-name="Aacute" unicode="&#xc1;" horiz-adv-x="506" 
d="M379 0l-35 150h-186l-36 -150h-120l176 708h153l173 -708h-125zM254 595h-4l-77 -351h156zM278 764h-85l90 144h104z" />
    <glyph glyph-name="Acircumflex" unicode="&#xc2;" horiz-adv-x="506" 
d="M379 0l-35 150h-186l-36 -150h-120l176 708h153l173 -708h-125zM254 595h-4l-77 -351h156zM322 764l-69 93l-68 -93h-89l110 144h97l109 -144h-90z" />
    <glyph glyph-name="Atilde" unicode="&#xc3;" horiz-adv-x="506" 
d="M379 0l-35 150h-186l-36 -150h-120l176 708h153l173 -708h-125zM254 595h-4l-77 -351h156zM398 894q-3 -59 -24 -88.5t-56 -29.5q-17 0 -31.5 5.5t-35.5 19.5q-23 16 -33 20.5t-22 4.5q-16 0 -25 -13.5t-12 -36.5h-47q3 51 24 84.5t56 33.5q19 0 33.5 -5.5t34.5 -19.5
q23 -15 33 -20t23 -5q17 0 25 12t11 38h46z" />
    <glyph glyph-name="Adieresis" unicode="&#xc4;" horiz-adv-x="506" 
d="M379 0l-35 150h-186l-36 -150h-120l176 708h153l173 -708h-125zM254 595h-4l-77 -351h156zM392 846q0 -28 -17.5 -47t-42.5 -19q-26 0 -42.5 19t-16.5 47q0 27 16.5 46t42.5 19t43 -19t17 -46zM235 846q0 -28 -17 -47t-43 -19t-42.5 19t-16.5 47q0 27 16.5 46t42.5 19
t43 -19t17 -46z" />
    <glyph glyph-name="Aring" unicode="&#xc5;" horiz-adv-x="506" 
d="M379 0l-35 150h-186l-36 -150h-120l176 708h153l173 -708h-125zM254 595h-4l-77 -351h156zM352 853q0 -45 -27 -75.5t-71 -30.5t-70.5 30.5t-26.5 75.5t26.5 75.5t70.5 30.5t71 -30.5t27 -75.5zM309 853q0 26 -14.5 46t-40.5 20t-40 -20t-14 -46t14 -46t40 -20t40.5 20
t14.5 46z" />
    <glyph glyph-name="AE" unicode="&#xc6;" horiz-adv-x="677" 
d="M329 0v150h-158l-52 -150h-124l253 708h385v-106h-194v-188h179v-98h-179v-209h204v-107h-314zM329 605h-7l-122 -359h129v359z" />
    <glyph glyph-name="Ccedilla" unicode="&#xc7;" horiz-adv-x="496" 
d="M483 76q-24 -35 -59.5 -59.5t-86.5 -31.5l-34 -52q12 3 27 3q14 0 28.5 -4t26.5 -13t19.5 -23.5t7.5 -35.5q0 -27 -12 -45t-30 -28.5t-40 -14.5t-41 -4q-23 0 -50.5 4.5t-48.5 15.5l20 50q16 -8 35.5 -12t36.5 -4q8 0 17 2t17 6.5t13 11.5t5 18q0 17 -13.5 24.5
t-31.5 7.5q-10 0 -21.5 -2t-20.5 -6l-24 22l50 78q-54 6 -97 36.5t-73 79t-46 113.5t-16 141q0 81 18.5 149.5t52.5 118t82.5 77t107.5 27.5q61 0 107 -22.5t75 -64.5l-69 -84q-41 59 -106 59q-36 0 -63 -20.5t-45 -55.5t-27 -82.5t-9 -101.5q0 -53 9 -100.5t27 -82.5
t45.5 -55.5t64.5 -20.5q35 0 60.5 18t42.5 44l69 -81v0z" />
    <glyph glyph-name="Egrave" unicode="&#xc8;" horiz-adv-x="436" 
d="M72 0v708h317v-106h-202v-188h187v-98h-187v-209h212v-107h-327zM213 764l-109 144h104l90 -144h-85z" />
    <glyph glyph-name="Eacute" unicode="&#xc9;" horiz-adv-x="436" 
d="M72 0v708h317v-106h-202v-188h187v-98h-187v-209h212v-107h-327zM264 764h-85l90 144h104z" />
    <glyph glyph-name="Ecircumflex" unicode="&#xca;" horiz-adv-x="436" 
d="M72 0v708h317v-106h-202v-188h187v-98h-187v-209h212v-107h-327zM297 764l-69 93l-68 -93h-89l110 144h97l109 -144h-90z" />
    <glyph glyph-name="Edieresis" unicode="&#xcb;" horiz-adv-x="436" 
d="M72 0v708h317v-106h-202v-188h187v-98h-187v-209h212v-107h-327zM365 846q0 -28 -17.5 -47t-42.5 -19q-26 0 -42.5 19t-16.5 47q0 27 16.5 46t42.5 19t43 -19t17 -46zM208 846q0 -28 -17 -47t-43 -19t-42.5 19t-16.5 47q0 27 16.5 46t42.5 19t43 -19t17 -46z" />
    <glyph glyph-name="Igrave" unicode="&#xcc;" horiz-adv-x="264" 
d="M72 0v708h120v-708h-120zM107 764l-109 144h104l90 -144h-85z" />
    <glyph glyph-name="Iacute" unicode="&#xcd;" horiz-adv-x="264" 
d="M72 0v708h120v-708h-120zM158 764h-85l90 144h104z" />
    <glyph glyph-name="Icircumflex" unicode="&#xce;" horiz-adv-x="264" 
d="M72 0v708h120v-708h-120zM201 764l-69 93l-68 -93h-89l110 144h97l109 -144h-90z" />
    <glyph glyph-name="Idieresis" unicode="&#xcf;" horiz-adv-x="264" 
d="M72 0v708h120v-708h-120zM270 846q0 -28 -17.5 -47t-42.5 -19q-26 0 -42.5 19t-16.5 47q0 27 16.5 46t42.5 19t43 -19t17 -46zM113 846q0 -28 -17 -47t-43 -19t-42.5 19t-16.5 47q0 27 16.5 46t42.5 19t43 -19t17 -46z" />
    <glyph glyph-name="Eth" unicode="&#xd0;" horiz-adv-x="569" 
d="M72 708h178q136 0 206.5 -93.5t70.5 -261.5t-70.5 -260.5t-207.5 -92.5h-177v323h-56v80h56v305zM193 105h57q34 0 63 15.5t50 46.5t32.5 77.5t11.5 108.5q0 63 -11.5 110t-32.5 78t-50 46.5t-63 15.5h-57v-200h114v-80h-114v-218z" />
    <glyph glyph-name="Ntilde" unicode="&#xd1;" horiz-adv-x="586" 
d="M382 0l-201 500h-3l2 -500h-108v708h137l199 -503h3l-1 503h104v-708h-132zM438 894q-3 -59 -24 -88.5t-56 -29.5q-17 0 -31.5 5.5t-35.5 19.5q-23 16 -33 20.5t-22 4.5q-16 0 -25 -13.5t-12 -36.5h-47q3 51 24 84.5t56 33.5q19 0 33.5 -5.5t34.5 -19.5q23 -15 33 -20
t23 -5q17 0 25 12t11 38h46z" />
    <glyph glyph-name="Ograve" unicode="&#xd2;" horiz-adv-x="591" 
d="M551 355q0 -84 -17.5 -152.5t-50.5 -117.5t-80.5 -76t-106.5 -27q-60 0 -107 27t-80 76t-50.5 117.5t-17.5 152.5t17 152t50 117t80.5 75.5t107.5 26.5q59 0 106.5 -26.5t80.5 -75.5t50.5 -117t17.5 -152zM427 355q0 54 -8.5 101.5t-25 82t-41 54.5t-56.5 20
q-33 0 -57.5 -20t-41 -54.5t-24.5 -82t-8 -101.5t8 -101.5t24.5 -82.5t41 -55t57.5 -20t57.5 20t41 55t24.5 82.5t8 101.5zM270 764l-109 144h104l90 -144h-85z" />
    <glyph glyph-name="Oacute" unicode="&#xd3;" horiz-adv-x="591" 
d="M551 355q0 -84 -17.5 -152.5t-50.5 -117.5t-80.5 -76t-106.5 -27q-60 0 -107 27t-80 76t-50.5 117.5t-17.5 152.5t17 152t50 117t80.5 75.5t107.5 26.5q59 0 106.5 -26.5t80.5 -75.5t50.5 -117t17.5 -152zM427 355q0 54 -8.5 101.5t-25 82t-41 54.5t-56.5 20
q-33 0 -57.5 -20t-41 -54.5t-24.5 -82t-8 -101.5t8 -101.5t24.5 -82.5t41 -55t57.5 -20t57.5 20t41 55t24.5 82.5t8 101.5zM328 764h-85l90 144h104z" />
    <glyph glyph-name="Ocircumflex" unicode="&#xd4;" horiz-adv-x="591" 
d="M551 355q0 -84 -17.5 -152.5t-50.5 -117.5t-80.5 -76t-106.5 -27q-60 0 -107 27t-80 76t-50.5 117.5t-17.5 152.5t17 152t50 117t80.5 75.5t107.5 26.5q59 0 106.5 -26.5t80.5 -75.5t50.5 -117t17.5 -152zM427 355q0 54 -8.5 101.5t-25 82t-41 54.5t-56.5 20
q-33 0 -57.5 -20t-41 -54.5t-24.5 -82t-8 -101.5t8 -101.5t24.5 -82.5t41 -55t57.5 -20t57.5 20t41 55t24.5 82.5t8 101.5zM364 764l-69 93l-68 -93h-89l110 144h97l109 -144h-90z" />
    <glyph glyph-name="Otilde" unicode="&#xd5;" horiz-adv-x="591" 
d="M551 355q0 -84 -17.5 -152.5t-50.5 -117.5t-80.5 -76t-106.5 -27q-60 0 -107 27t-80 76t-50.5 117.5t-17.5 152.5t17 152t50 117t80.5 75.5t107.5 26.5q59 0 106.5 -26.5t80.5 -75.5t50.5 -117t17.5 -152zM427 355q0 54 -8.5 101.5t-25 82t-41 54.5t-56.5 20
q-33 0 -57.5 -20t-41 -54.5t-24.5 -82t-8 -101.5t8 -101.5t24.5 -82.5t41 -55t57.5 -20t57.5 20t41 55t24.5 82.5t8 101.5zM439 894q-3 -59 -24 -88.5t-56 -29.5q-17 0 -31.5 5.5t-35.5 19.5q-23 16 -33 20.5t-22 4.5q-16 0 -25 -13.5t-12 -36.5h-47q3 51 24 84.5t56 33.5
q19 0 33.5 -5.5t34.5 -19.5q23 -15 33 -20t23 -5q17 0 25 12t11 38h46z" />
    <glyph glyph-name="Odieresis" unicode="&#xd6;" horiz-adv-x="591" 
d="M551 355q0 -84 -17.5 -152.5t-50.5 -117.5t-80.5 -76t-106.5 -27q-60 0 -107 27t-80 76t-50.5 117.5t-17.5 152.5t17 152t50 117t80.5 75.5t107.5 26.5q59 0 106.5 -26.5t80.5 -75.5t50.5 -117t17.5 -152zM427 355q0 54 -8.5 101.5t-25 82t-41 54.5t-56.5 20
q-33 0 -57.5 -20t-41 -54.5t-24.5 -82t-8 -101.5t8 -101.5t24.5 -82.5t41 -55t57.5 -20t57.5 20t41 55t24.5 82.5t8 101.5zM434 846q0 -28 -17.5 -47t-42.5 -19q-26 0 -42.5 19t-16.5 47q0 27 16.5 46t42.5 19t43 -19t17 -46zM277 846q0 -28 -17 -47t-43 -19t-42.5 19
t-16.5 47q0 27 16.5 46t42.5 19t43 -19t17 -46z" />
    <glyph glyph-name="multiply" unicode="&#xd7;" horiz-adv-x="666" 
d="M333 374l182 182l70 -70l-181 -181l185 -186l-74 -74l-183 181l-181 -181l-74 73l185 182l-184 186l72 71z" />
    <glyph glyph-name="Oslash" unicode="&#xd8;" horiz-adv-x="593" 
d="M474 636q37 -49 57 -120t20 -161q0 -84 -17.5 -152.5t-50.5 -117.5t-80.5 -76t-106.5 -27q-82 0 -141 51l-40 -84l-59 27l54 107q-34 49 -51.5 118t-17.5 154q0 84 17 152t50 117t80.5 75.5t107.5 26.5q74 0 131 -43l38 80l58 -26zM431 355q0 47 -6 88.5t-18 74.5
l-196 -382q34 -47 85 -47q34 0 59 20.5t42 56.5t25.5 84.5t8.5 104.5zM161 355q0 -88 19 -151l191 379q-15 17 -33.5 27t-41.5 10q-34 0 -59.5 -20.5t-42 -56t-25 -84t-8.5 -104.5z" />
    <glyph glyph-name="Ugrave" unicode="&#xd9;" horiz-adv-x="567" 
d="M506 251q0 -56 -12 -105t-39 -85.5t-69.5 -57.5t-103.5 -21t-103 21t-68.5 57.5t-38 85.5t-11.5 105v457h120v-446q0 -33 4.5 -63.5t16 -53.5t31.5 -36.5t51 -13.5t51 13.5t31.5 36.5t16 53.5t4.5 63.5v446h119v-457zM252 764l-109 144h104l90 -144h-85z" />
    <glyph glyph-name="Uacute" unicode="&#xda;" horiz-adv-x="567" 
d="M506 251q0 -56 -12 -105t-39 -85.5t-69.5 -57.5t-103.5 -21t-103 21t-68.5 57.5t-38 85.5t-11.5 105v457h120v-446q0 -33 4.5 -63.5t16 -53.5t31.5 -36.5t51 -13.5t51 13.5t31.5 36.5t16 53.5t4.5 63.5v446h119v-457zM319 764h-85l90 144h104z" />
    <glyph glyph-name="Ucircumflex" unicode="&#xdb;" horiz-adv-x="567" 
d="M506 251q0 -56 -12 -105t-39 -85.5t-69.5 -57.5t-103.5 -21t-103 21t-68.5 57.5t-38 85.5t-11.5 105v457h120v-446q0 -33 4.5 -63.5t16 -53.5t31.5 -36.5t51 -13.5t51 13.5t31.5 36.5t16 53.5t4.5 63.5v446h119v-457zM352 764l-69 93l-68 -93h-89l110 144h97l109 -144
h-90z" />
    <glyph glyph-name="Udieresis" unicode="&#xdc;" horiz-adv-x="567" 
d="M506 251q0 -56 -12 -105t-39 -85.5t-69.5 -57.5t-103.5 -21t-103 21t-68.5 57.5t-38 85.5t-11.5 105v457h120v-446q0 -33 4.5 -63.5t16 -53.5t31.5 -36.5t51 -13.5t51 13.5t31.5 36.5t16 53.5t4.5 63.5v446h119v-457zM423 846q0 -28 -17.5 -47t-42.5 -19q-26 0 -42.5 19
t-16.5 47q0 27 16.5 46t42.5 19t43 -19t17 -46zM266 846q0 -28 -17 -47t-43 -19t-42.5 19t-16.5 47q0 27 16.5 46t42.5 19t43 -19t17 -46z" />
    <glyph glyph-name="Yacute" unicode="&#xdd;" horiz-adv-x="462" 
d="M289 271v-271h-118v271l-177 437h130l106 -316l3 2l108 314h127zM265 764h-85l90 144h104z" />
    <glyph glyph-name="Thorn" unicode="&#xde;" horiz-adv-x="514" 
d="M72 708h118v-134h75q49 0 88.5 -11t67.5 -36t43.5 -64t15.5 -94q0 -59 -17.5 -99t-48 -64.5t-71 -35.5t-85.5 -11h-68v-159h-118v708zM241 258q25 0 47 5.5t39 18.5t27 34t10 53q0 31 -10 51.5t-26.5 32.5t-38 16.5t-45.5 4.5h-54v-216h51z" />
    <glyph glyph-name="germandbls" unicode="&#xdf;" horiz-adv-x="491" 
d="M329 419q27 -5 50.5 -20.5t41.5 -40.5t28 -60t10 -80q0 -46 -10 -87.5t-32 -72.5t-57 -49t-86 -18q-15 0 -30.5 2.5t-25.5 4.5v93q9 -2 17.5 -3t16.5 -1q53 0 76.5 39t23.5 98q0 68 -29.5 105.5t-81.5 37.5h-16v93h16q38 0 63 30.5t25 81.5q0 19 -4 37t-12.5 32
t-22.5 22.5t-34 8.5q-24 0 -40 -13t-25 -34.5t-12.5 -49t-3.5 -57.5v-518h-111v516q0 54 10.5 100t33.5 79.5t60 53t90 19.5q43 0 76 -14.5t54.5 -39.5t32.5 -60t11 -75q0 -33 -8.5 -59.5t-23 -47t-33 -33.5t-38.5 -19v-1z" />
    <glyph glyph-name="agrave" unicode="&#xe0;" horiz-adv-x="435" 
d="M184 575l-109 144h104l90 -144h-85zM275 239h-33q-21 0 -40.5 -3.5t-34.5 -13.5t-24 -27.5t-9 -44.5q0 -40 17.5 -59t40.5 -19t39 13t25.5 33t14 44.5t4.5 47.5v29zM279 76q-11 -42 -40 -65.5t-77 -23.5q-22 0 -45 8t-41.5 26.5t-30.5 48t-12 71.5q0 54 19.5 88.5
t50 54.5t68 27.5t73.5 7.5h28v16q0 51 -20.5 73.5t-54.5 22.5q-29 0 -52.5 -13.5t-40.5 -35.5l-54 71q28 35 71 54.5t85 19.5q47 0 79.5 -15t52.5 -43.5t28.5 -70.5t8.5 -95v-303h-94v76h-2z" />
    <glyph glyph-name="aacute" unicode="&#xe1;" horiz-adv-x="435" 
d="M238 575h-85l90 144h104zM275 239h-33q-21 0 -40.5 -3.5t-34.5 -13.5t-24 -27.5t-9 -44.5q0 -40 17.5 -59t40.5 -19t39 13t25.5 33t14 44.5t4.5 47.5v29zM279 76q-11 -42 -40 -65.5t-77 -23.5q-22 0 -45 8t-41.5 26.5t-30.5 48t-12 71.5q0 54 19.5 88.5t50 54.5t68 27.5
t73.5 7.5h28v16q0 51 -20.5 73.5t-54.5 22.5q-29 0 -52.5 -13.5t-40.5 -35.5l-54 71q28 35 71 54.5t85 19.5q47 0 79.5 -15t52.5 -43.5t28.5 -70.5t8.5 -95v-303h-94v76h-2z" />
    <glyph glyph-name="acircumflex" unicode="&#xe2;" horiz-adv-x="435" 
d="M281 575l-69 93l-68 -93h-89l110 144h97l109 -144h-90zM275 239h-33q-21 0 -40.5 -3.5t-34.5 -13.5t-24 -27.5t-9 -44.5q0 -40 17.5 -59t40.5 -19t39 13t25.5 33t14 44.5t4.5 47.5v29zM279 76q-11 -42 -40 -65.5t-77 -23.5q-22 0 -45 8t-41.5 26.5t-30.5 48t-12 71.5
q0 54 19.5 88.5t50 54.5t68 27.5t73.5 7.5h28v16q0 51 -20.5 73.5t-54.5 22.5q-29 0 -52.5 -13.5t-40.5 -35.5l-54 71q28 35 71 54.5t85 19.5q47 0 79.5 -15t52.5 -43.5t28.5 -70.5t8.5 -95v-303h-94v76h-2z" />
    <glyph glyph-name="atilde" unicode="&#xe3;" horiz-adv-x="435" 
d="M357 705q-3 -59 -24 -88.5t-56 -29.5q-17 0 -31.5 5.5t-35.5 19.5q-23 16 -33 20.5t-22 4.5q-16 0 -25 -13.5t-12 -36.5h-47q3 51 24 84.5t56 33.5q19 0 33.5 -5.5t34.5 -19.5q23 -15 33 -20t23 -5q17 0 25 12t11 38h46zM275 239h-33q-21 0 -40.5 -3.5t-34.5 -13.5
t-24 -27.5t-9 -44.5q0 -40 17.5 -59t40.5 -19t39 13t25.5 33t14 44.5t4.5 47.5v29zM279 76q-11 -42 -40 -65.5t-77 -23.5q-22 0 -45 8t-41.5 26.5t-30.5 48t-12 71.5q0 54 19.5 88.5t50 54.5t68 27.5t73.5 7.5h28v16q0 51 -20.5 73.5t-54.5 22.5q-29 0 -52.5 -13.5
t-40.5 -35.5l-54 71q28 35 71 54.5t85 19.5q47 0 79.5 -15t52.5 -43.5t28.5 -70.5t8.5 -95v-303h-94v76h-2z" />
    <glyph glyph-name="adieresis" unicode="&#xe4;" horiz-adv-x="435" 
d="M275 239h-33q-21 0 -40.5 -3.5t-34.5 -13.5t-24 -27.5t-9 -44.5q0 -40 17.5 -59t40.5 -19t39 13t25.5 33t14 44.5t4.5 47.5v29zM279 76q-11 -42 -40 -65.5t-77 -23.5q-22 0 -45 8t-41.5 26.5t-30.5 48t-12 71.5q0 54 19.5 88.5t50 54.5t68 27.5t73.5 7.5h28v16
q0 51 -20.5 73.5t-54.5 22.5q-29 0 -52.5 -13.5t-40.5 -35.5l-54 71q28 35 71 54.5t85 19.5q47 0 79.5 -15t52.5 -43.5t28.5 -70.5t8.5 -95v-303h-94v76h-2zM195 657q0 -28 -17 -47t-43 -19t-42.5 19t-16.5 47q0 27 16.5 46t42.5 19t43 -19t17 -46zM352 657q0 -28 -17.5 -47
t-42.5 -19q-26 0 -42.5 19t-16.5 47q0 27 16.5 46t42.5 19t43 -19t17 -46z" />
    <glyph glyph-name="aring" unicode="&#xe5;" horiz-adv-x="435" 
d="M312 664q0 -45 -27 -75.5t-71 -30.5t-70.5 30.5t-26.5 75.5t26.5 75.5t70.5 30.5t71 -30.5t27 -75.5zM269 664q0 26 -14.5 46t-40.5 20t-40 -20t-14 -46t14 -46t40 -20t40.5 20t14.5 46zM275 239h-33q-21 0 -40.5 -3.5t-34.5 -13.5t-24 -27.5t-9 -44.5q0 -40 17.5 -59
t40.5 -19t39 13t25.5 33t14 44.5t4.5 47.5v29zM279 76q-11 -42 -40 -65.5t-77 -23.5q-22 0 -45 8t-41.5 26.5t-30.5 48t-12 71.5q0 54 19.5 88.5t50 54.5t68 27.5t73.5 7.5h28v16q0 51 -20.5 73.5t-54.5 22.5q-29 0 -52.5 -13.5t-40.5 -35.5l-54 71q28 35 71 54.5t85 19.5
q47 0 79.5 -15t52.5 -43.5t28.5 -70.5t8.5 -95v-303h-94v76h-2z" />
    <glyph glyph-name="ae" unicode="&#xe6;" horiz-adv-x="680" 
d="M460 527q49 0 83.5 -20t56 -54.5t31.5 -81.5t10 -102v-43h-265q0 -30 6 -56.5t17.5 -46t28 -31t38.5 -11.5q31 0 49.5 20t29.5 46l83 -48q-22 -53 -62.5 -84.5t-103.5 -31.5q-54 0 -90.5 30.5t-53.5 84.5q-12 -52 -46 -83.5t-102 -31.5q-23 0 -47.5 8t-44.5 26t-32.5 47
t-12.5 71q0 52 19.5 85.5t50 53t68 27t73.5 7.5h28v18q0 51 -20.5 78.5t-54.5 27.5q-29 0 -52.5 -13.5t-40.5 -35.5l-54 71q28 35 71 54t85 19q56 0 87.5 -26.5t40.5 -70.5q6 19 17 36.5t27 31t36.5 21.5t45.5 8zM533 308q0 57 -18 92.5t-56 35.5q-22 0 -37.5 -13t-25 -32.5
t-14.5 -42t-5 -40.5h156zM275 226h-33q-21 0 -40.5 -3.5t-34.5 -13.5t-24 -26.5t-9 -41.5q0 -40 17.5 -54.5t40.5 -14.5t39 11.5t25.5 29.5t14 41t4.5 46v26z" />
    <glyph glyph-name="ccedilla" unicode="&#xe7;" horiz-adv-x="351" 
d="M348 30q-33 -35 -86 -44l-35 -53q12 3 27 3q14 0 28.5 -4t26.5 -13t19.5 -23.5t7.5 -35.5q0 -27 -12 -45t-30 -28.5t-40 -14.5t-41 -4q-23 0 -50.5 4.5t-48.5 15.5l20 50q16 -8 35.5 -12t36.5 -4q8 0 17 2t17 6.5t13 11.5t5 18q0 17 -13.5 24.5t-31.5 7.5q-10 0 -21.5 -2
t-20.5 -6l-24 22l51 80q-40 6 -70 28.5t-50 57.5t-30 82t-10 102q0 60 12.5 110t37 86t60 55.5t82.5 19.5q41 0 70.5 -14t46.5 -31l-51 -85q-11 12 -25.5 20t-35.5 8q-42 0 -63.5 -46.5t-21.5 -122.5t22 -122t67 -46q21 0 36 8t26 22l47 -88v0z" />
    <glyph glyph-name="egrave" unicode="&#xe8;" horiz-adv-x="448" 
d="M202 575l-109 144h104l90 -144h-85zM149 226q0 -30 6 -56.5t17.5 -46t28 -31t38.5 -11.5q31 0 49.5 20t29.5 46l83 -48q-22 -53 -62.5 -84.5t-103.5 -31.5q-89 0 -143 70t-54 201q0 61 14 111.5t40 86.5t61.5 55.5t79.5 19.5q49 0 83.5 -20t56 -54.5t31.5 -81.5t10 -102
v-43h-265zM306 308q0 57 -18 92.5t-56 35.5q-22 0 -37.5 -13t-25 -32.5t-14.5 -42t-5 -40.5h156z" />
    <glyph glyph-name="eacute" unicode="&#xe9;" horiz-adv-x="448" 
d="M257 575h-85l90 144h104zM149 226q0 -30 6 -56.5t17.5 -46t28 -31t38.5 -11.5q31 0 49.5 20t29.5 46l83 -48q-22 -53 -62.5 -84.5t-103.5 -31.5q-89 0 -143 70t-54 201q0 61 14 111.5t40 86.5t61.5 55.5t79.5 19.5q49 0 83.5 -20t56 -54.5t31.5 -81.5t10 -102v-43h-265z
M306 308q0 57 -18 92.5t-56 35.5q-22 0 -37.5 -13t-25 -32.5t-14.5 -42t-5 -40.5h156z" />
    <glyph glyph-name="ecircumflex" unicode="&#xea;" horiz-adv-x="448" 
d="M304 575l-69 93l-68 -93h-89l110 144h97l109 -144h-90zM149 226q0 -30 6 -56.5t17.5 -46t28 -31t38.5 -11.5q31 0 49.5 20t29.5 46l83 -48q-22 -53 -62.5 -84.5t-103.5 -31.5q-89 0 -143 70t-54 201q0 61 14 111.5t40 86.5t61.5 55.5t79.5 19.5q49 0 83.5 -20t56 -54.5
t31.5 -81.5t10 -102v-43h-265zM306 308q0 57 -18 92.5t-56 35.5q-22 0 -37.5 -13t-25 -32.5t-14.5 -42t-5 -40.5h156z" />
    <glyph glyph-name="edieresis" unicode="&#xeb;" horiz-adv-x="448" 
d="M149 226q0 -30 6 -56.5t17.5 -46t28 -31t38.5 -11.5q31 0 49.5 20t29.5 46l83 -48q-22 -53 -62.5 -84.5t-103.5 -31.5q-89 0 -143 70t-54 201q0 61 14 111.5t40 86.5t61.5 55.5t79.5 19.5q49 0 83.5 -20t56 -54.5t31.5 -81.5t10 -102v-43h-265zM306 308q0 57 -18 92.5
t-56 35.5q-22 0 -37.5 -13t-25 -32.5t-14.5 -42t-5 -40.5h156zM218 657q0 -28 -17 -47t-43 -19t-42.5 19t-16.5 47q0 27 16.5 46t42.5 19t43 -19t17 -46zM375 657q0 -28 -17.5 -47t-42.5 -19q-26 0 -42.5 19t-16.5 47q0 27 16.5 46t42.5 19t43 -19t17 -46z" />
    <glyph glyph-name="igrave" unicode="&#xec;" horiz-adv-x="250" 
d="M95 575l-109 144h104l90 -144h-85zM68 0v510h113v-510h-113z" />
    <glyph glyph-name="iacute" unicode="&#xed;" horiz-adv-x="250" 
d="M154 575h-85l90 144h104zM68 0v510h113v-510h-113z" />
    <glyph glyph-name="icircumflex" unicode="&#xee;" horiz-adv-x="250" 
d="M194 575l-69 93l-68 -93h-89l110 144h97l109 -144h-90zM68 0v510h113v-510h-113z" />
    <glyph glyph-name="idieresis" unicode="&#xef;" horiz-adv-x="250" 
d="M106 657q0 -28 -17 -47t-43 -19t-42.5 19t-16.5 47q0 27 16.5 46t42.5 19t43 -19t17 -46zM263 657q0 -28 -17.5 -47t-42.5 -19q-26 0 -42.5 19t-16.5 47q0 27 16.5 46t42.5 19t43 -19t17 -46zM68 0v510h113v-510h-113z" />
    <glyph glyph-name="eth" unicode="&#xf0;" horiz-adv-x="468" 
d="M428 254q0 -62 -14.5 -112t-40.5 -85.5t-61.5 -55t-78.5 -19.5q-44 0 -80 19t-62 54.5t-40 86t-14 113.5q0 58 13.5 106t38 82.5t58.5 53.5t76 19q18 0 31 -5.5t23 -13.5l3 1q-14 32 -35.5 66t-43.5 59l-98 -53l-47 51l100 52q-15 17 -36 34l-42 33l93 44l40.5 -35.5
t36.5 -37.5l89 47l52 -49l-101 -51q26 -33 51.5 -77t45 -96.5t31.5 -111t12 -119.5zM320 255q0 36 -5.5 67t-16.5 54.5t-27 36.5t-38 13t-38 -13t-26.5 -36.5t-15.5 -54.5t-5 -67q0 -35 5 -66t15.5 -54t26.5 -36.5t38 -13.5t38.5 13.5t27 36.5t16 54t5.5 66z" />
    <glyph glyph-name="ntilde" unicode="&#xf1;" horiz-adv-x="505" 
d="M397 705q-3 -59 -24 -88.5t-56 -29.5q-17 0 -31.5 5.5t-35.5 19.5q-23 16 -33 20.5t-22 4.5q-16 0 -25 -13.5t-12 -36.5h-47q3 51 24 84.5t56 33.5q19 0 33.5 -5.5t34.5 -19.5q23 -15 33 -20t23 -5q17 0 25 12t11 38h46zM181 510v-81h2q14 41 46.5 69.5t80.5 28.5
q42 0 67.5 -17.5t39.5 -46.5t19 -66.5t5 -76.5v-320h-113v320q0 19 -2 38.5t-8.5 35.5t-19 25.5t-32.5 9.5q-38 0 -60.5 -38t-22.5 -96v-295h-113v510h111z" />
    <glyph glyph-name="ograve" unicode="&#xf2;" horiz-adv-x="468" 
d="M201 575l-109 144h104l90 -144h-85zM430 254q0 -60 -13.5 -110t-39 -85.5t-61.5 -55.5t-82 -20t-82 20t-61.5 55.5t-39 85.5t-13.5 110q0 61 13.5 111.5t38.5 86.5t61.5 55.5t82.5 19.5t82 -19.5t61.5 -55.5t39 -86.5t13.5 -111.5zM318 255q0 37 -5 68.5t-15.5 55t-26 37
t-37.5 13.5t-37.5 -13.5t-25.5 -37t-15 -55t-5 -68.5q0 -36 5 -68t15 -55t25.5 -36.5t37.5 -13.5t38 13.5t26 36.5t15 55t5 68z" />
    <glyph glyph-name="oacute" unicode="&#xf3;" horiz-adv-x="468" 
d="M275 575h-85l90 144h104zM430 254q0 -60 -13.5 -110t-39 -85.5t-61.5 -55.5t-82 -20t-82 20t-61.5 55.5t-39 85.5t-13.5 110q0 61 13.5 111.5t38.5 86.5t61.5 55.5t82.5 19.5t82 -19.5t61.5 -55.5t39 -86.5t13.5 -111.5zM318 255q0 37 -5 68.5t-15.5 55t-26 37
t-37.5 13.5t-37.5 -13.5t-25.5 -37t-15 -55t-5 -68.5q0 -36 5 -68t15 -55t25.5 -36.5t37.5 -13.5t38 13.5t26 36.5t15 55t5 68z" />
    <glyph glyph-name="ocircumflex" unicode="&#xf4;" horiz-adv-x="468" 
d="M301 575l-69 93l-68 -93h-89l110 144h97l109 -144h-90zM430 254q0 -60 -13.5 -110t-39 -85.5t-61.5 -55.5t-82 -20t-82 20t-61.5 55.5t-39 85.5t-13.5 110q0 61 13.5 111.5t38.5 86.5t61.5 55.5t82.5 19.5t82 -19.5t61.5 -55.5t39 -86.5t13.5 -111.5zM318 255
q0 37 -5 68.5t-15.5 55t-26 37t-37.5 13.5t-37.5 -13.5t-25.5 -37t-15 -55t-5 -68.5q0 -36 5 -68t15 -55t25.5 -36.5t37.5 -13.5t38 13.5t26 36.5t15 55t5 68z" />
    <glyph glyph-name="otilde" unicode="&#xf5;" horiz-adv-x="468" 
d="M376 705q-3 -59 -24 -88.5t-56 -29.5q-17 0 -31.5 5.5t-35.5 19.5q-23 16 -33 20.5t-22 4.5q-16 0 -25 -13.5t-12 -36.5h-47q3 51 24 84.5t56 33.5q19 0 33.5 -5.5t34.5 -19.5q23 -15 33 -20t23 -5q17 0 25 12t11 38h46zM430 254q0 -60 -13.5 -110t-39 -85.5t-61.5 -55.5
t-82 -20t-82 20t-61.5 55.5t-39 85.5t-13.5 110q0 61 13.5 111.5t38.5 86.5t61.5 55.5t82.5 19.5t82 -19.5t61.5 -55.5t39 -86.5t13.5 -111.5zM318 255q0 37 -5 68.5t-15.5 55t-26 37t-37.5 13.5t-37.5 -13.5t-25.5 -37t-15 -55t-5 -68.5q0 -36 5 -68t15 -55t25.5 -36.5
t37.5 -13.5t38 13.5t26 36.5t15 55t5 68z" />
    <glyph glyph-name="odieresis" unicode="&#xf6;" horiz-adv-x="468" 
d="M430 254q0 -60 -13.5 -110t-39 -85.5t-61.5 -55.5t-82 -20t-82 20t-61.5 55.5t-39 85.5t-13.5 110q0 61 13.5 111.5t38.5 86.5t61.5 55.5t82.5 19.5t82 -19.5t61.5 -55.5t39 -86.5t13.5 -111.5zM318 255q0 37 -5 68.5t-15.5 55t-26 37t-37.5 13.5t-37.5 -13.5t-25.5 -37
t-15 -55t-5 -68.5q0 -36 5 -68t15 -55t25.5 -36.5t37.5 -13.5t38 13.5t26 36.5t15 55t5 68zM214 657q0 -28 -17 -47t-43 -19t-42.5 19t-16.5 47q0 27 16.5 46t42.5 19t43 -19t17 -46zM371 657q0 -28 -17.5 -47t-42.5 -19q-26 0 -42.5 19t-16.5 47q0 27 16.5 46t42.5 19
t43 -19t17 -46z" />
    <glyph glyph-name="divide" unicode="&#xf7;" horiz-adv-x="666" 
d="M258 483q0 31 22 53t53 22t53 -22t22 -53t-22 -53t-53 -22t-53 22t-22 53zM258 123q0 31 22 53t53 22t53 -22t22 -53t-22 -53t-53 -22t-53 22t-22 53zM80 250v107h506v-107h-506z" />
    <glyph glyph-name="oslash" unicode="&#xf8;" horiz-adv-x="471" 
d="M373 459q27 -36 42 -89t15 -116q0 -60 -13.5 -110t-39 -85.5t-61.5 -55.5t-82 -20q-53 0 -95 28l-27 -57l-51 23l36 72q-29 36 -44 88t-15 117q0 61 13.5 111.5t38.5 86.5t61.5 55.5t82.5 19.5q55 0 98 -31l30 64l50 -23zM144 255q0 -60 12 -103l129 260q-20 26 -51 26
q-24 0 -41 -14t-28 -39t-16 -58t-5 -72zM325 255q0 26 -3.5 52.5t-8.5 46.5l-129 -259q20 -22 50 -22q24 0 41 14t28.5 38.5t16.5 58t5 71.5z" />
    <glyph glyph-name="ugrave" unicode="&#xf9;" horiz-adv-x="505" 
d="M220 575l-109 144h104l90 -144h-85zM324 0v81h-2q-14 -41 -46.5 -69.5t-80.5 -28.5q-42 0 -67.5 17.5t-39.5 46.5t-19 66.5t-5 76.5v320h113v-320q0 -20 2 -39t8.5 -34.5t19 -25t32.5 -9.5q38 0 60.5 37.5t22.5 95.5v295h113v-510h-111z" />
    <glyph glyph-name="uacute" unicode="&#xfa;" horiz-adv-x="505" 
d="M284 575h-85l90 144h104zM324 0v81h-2q-14 -41 -46.5 -69.5t-80.5 -28.5q-42 0 -67.5 17.5t-39.5 46.5t-19 66.5t-5 76.5v320h113v-320q0 -20 2 -39t8.5 -34.5t19 -25t32.5 -9.5q38 0 60.5 37.5t22.5 95.5v295h113v-510h-111z" />
    <glyph glyph-name="ucircumflex" unicode="&#xfb;" horiz-adv-x="505" 
d="M319 575l-69 93l-68 -93h-89l110 144h97l109 -144h-90zM324 0v81h-2q-14 -41 -46.5 -69.5t-80.5 -28.5q-42 0 -67.5 17.5t-39.5 46.5t-19 66.5t-5 76.5v320h113v-320q0 -20 2 -39t8.5 -34.5t19 -25t32.5 -9.5q38 0 60.5 37.5t22.5 95.5v295h113v-510h-111z" />
    <glyph glyph-name="udieresis" unicode="&#xfc;" horiz-adv-x="505" 
d="M232 657q0 -28 -17 -47t-43 -19t-42.5 19t-16.5 47q0 27 16.5 46t42.5 19t43 -19t17 -46zM389 657q0 -28 -17.5 -47t-42.5 -19q-26 0 -42.5 19t-16.5 47q0 27 16.5 46t42.5 19t43 -19t17 -46zM324 0v81h-2q-14 -41 -46.5 -69.5t-80.5 -28.5q-42 0 -67.5 17.5t-39.5 46.5
t-19 66.5t-5 76.5v320h113v-320q0 -20 2 -39t8.5 -34.5t19 -25t32.5 -9.5q38 0 60.5 37.5t22.5 95.5v295h113v-510h-111z" />
    <glyph glyph-name="yacute" unicode="&#xfd;" horiz-adv-x="427" 
d="M244 575h-85l90 144h104zM264 -70q-10 -38 -23.5 -69.5t-33.5 -54t-47.5 -34.5t-64.5 -12q-20 0 -38.5 2.5t-30.5 6.5l14 102q8 -3 19.5 -5.5t22.5 -2.5q27 0 41 16.5t21 45.5l15 63l-149 522h119l89 -384h3l81 384h115z" />
    <glyph glyph-name="thorn" unicode="&#xfe;" horiz-adv-x="496" 
d="M458 256q0 -59 -10.5 -108.5t-31.5 -86.5t-52 -57.5t-71 -20.5q-44 0 -72.5 24.5t-39.5 59.5h-2v-307h-111v996h109v-318h2q13 38 39 63.5t75 25.5q40 0 70.5 -20.5t51.5 -57t32 -86t11 -107.5zM345 256q0 36 -5 68t-15 55t-26 36.5t-38 13.5q-21 0 -37 -13.5
t-26.5 -36.5t-16 -55t-5.5 -68t5.5 -68t16 -55.5t26.5 -37t37 -13.5q22 0 38 13.5t26 37t15 55.5t5 68z" />
    <glyph glyph-name="ydieresis" unicode="&#xff;" horiz-adv-x="427" 
d="M200 657q0 -28 -17 -47t-43 -19t-42.5 19t-16.5 47q0 27 16.5 46t42.5 19t43 -19t17 -46zM357 657q0 -28 -17.5 -47t-42.5 -19q-26 0 -42.5 19t-16.5 47q0 27 16.5 46t42.5 19t43 -19t17 -46zM264 -70q-10 -38 -23.5 -69.5t-33.5 -54t-47.5 -34.5t-64.5 -12
q-20 0 -38.5 2.5t-30.5 6.5l14 102q8 -3 19.5 -5.5t22.5 -2.5q27 0 41 16.5t21 45.5l15 63l-149 522h119l89 -384h3l81 384h115z" />
    <glyph glyph-name="Amacron" unicode="&#x100;" horiz-adv-x="506" 
d="M379 0l-35 150h-186l-36 -150h-120l176 708h153l173 -708h-125zM254 595h-4l-77 -351h156zM115 802v66h274v-66h-274z" />
    <glyph glyph-name="amacron" unicode="&#x101;" horiz-adv-x="435" 
d="M78 613v66h274v-66h-274zM275 239h-33q-21 0 -40.5 -3.5t-34.5 -13.5t-24 -27.5t-9 -44.5q0 -40 17.5 -59t40.5 -19t39 13t25.5 33t14 44.5t4.5 47.5v29zM279 76q-11 -42 -40 -65.5t-77 -23.5q-22 0 -45 8t-41.5 26.5t-30.5 48t-12 71.5q0 54 19.5 88.5t50 54.5t68 27.5
t73.5 7.5h28v16q0 51 -20.5 73.5t-54.5 22.5q-29 0 -52.5 -13.5t-40.5 -35.5l-54 71q28 35 71 54.5t85 19.5q47 0 79.5 -15t52.5 -43.5t28.5 -70.5t8.5 -95v-303h-94v76h-2z" />
    <glyph glyph-name="Abreve" unicode="&#x102;" horiz-adv-x="506" 
d="M379 0l-35 150h-186l-36 -150h-120l176 708h153l173 -708h-125zM254 595h-4l-77 -351h156zM394 902q-4 -37 -16.5 -63t-31.5 -42t-43 -23.5t-51 -7.5q-26 0 -50 7.5t-43 23.5t-31.5 42t-15.5 63h66q5 -35 27 -50.5t47 -15.5q27 0 48.5 14.5t27.5 51.5h66z" />
    <glyph glyph-name="abreve" unicode="&#x103;" horiz-adv-x="435" 
d="M356 713q-4 -37 -16.5 -63t-31.5 -42t-43 -23.5t-51 -7.5q-26 0 -50 7.5t-43 23.5t-31.5 42t-15.5 63h66q4 -33 27 -51q21 -15 47 -15q27 0 48.5 14.5t27.5 51.5h66zM275 239h-33q-21 0 -40.5 -3.5t-34.5 -13.5t-24 -27.5t-9 -44.5q0 -40 17.5 -59t40.5 -19t39 13
t25.5 33t14 44.5t4.5 47.5v29zM279 76q-11 -42 -40 -65.5t-77 -23.5q-22 0 -45 8t-41.5 26.5t-30.5 48t-12 71.5q0 54 19.5 88.5t50 54.5t68 27.5t73.5 7.5h28v16q0 51 -20.5 73.5t-54.5 22.5q-29 0 -52.5 -13.5t-40.5 -35.5l-54 71q28 35 71 54.5t85 19.5q47 0 79.5 -15
t52.5 -43.5t28.5 -70.5t8.5 -95v-303h-94v76h-2z" />
    <glyph glyph-name="Aogonek" unicode="&#x104;" horiz-adv-x="506" 
d="M485 -190q-20 -17 -45 -27.5t-52 -10.5q-18 0 -35.5 5t-31 15.5t-21.5 26.5t-8 39q0 22 8.5 42t21.5 37.5t29.5 33l32.5 29.5h-5l-35 150h-186l-36 -150h-120l176 708h153l173 -708h-47q-44 -41 -64 -68t-20 -52q0 -19 10 -29t26 -10q28 0 51 21zM254 595h-4l-77 -351
h156z" />
    <glyph glyph-name="aogonek" unicode="&#x105;" horiz-adv-x="435" 
d="M279 76q-11 -42 -40 -65.5t-77 -23.5q-22 0 -45 8t-41.5 26.5t-30.5 48t-12 71.5q0 54 19.5 88.5t50 54.5t68 27.5t73.5 7.5h28v16q0 51 -20.5 73.5t-54.5 22.5q-29 0 -52.5 -13.5t-40.5 -35.5l-54 71q28 35 71 54.5t85 19.5q47 0 79.5 -15t52.5 -43.5t28.5 -70.5
t8.5 -95v-303h-16q-44 -41 -64 -68t-20 -52q0 -19 10 -29t26 -10q28 0 51 21l25 -52q-20 -17 -45 -27.5t-52 -10.5q-18 0 -35.5 5t-31 15.5t-21.5 26.5t-8 39q0 22 8.5 42t21.5 37.5t29.5 33l32.5 29.5h-5v76h-2zM275 239h-33q-21 0 -40.5 -3.5t-34.5 -13.5t-24 -27.5
t-9 -44.5q0 -40 17.5 -59t40.5 -19t39 13t25.5 33t14 44.5t4.5 47.5v29z" />
    <glyph glyph-name="Cacute" unicode="&#x106;" horiz-adv-x="496" 
d="M483 76q-28 -42 -71.5 -68t-109.5 -26q-60 0 -108.5 28t-82 77.5t-52 117.5t-18.5 149t18.5 149.5t52.5 118t82.5 77t107.5 27.5q61 0 107 -22.5t75 -64.5l-69 -84q-41 59 -106 59q-36 0 -63 -20.5t-45 -55.5t-27 -82.5t-9 -101.5q0 -53 9 -100.5t27 -82.5t45.5 -55.5
t64.5 -20.5q35 0 60.5 18t42.5 44zM317 764h-85l90 144h104z" />
    <glyph glyph-name="cacute" unicode="&#x107;" horiz-adv-x="351" 
d="M245 575h-85l90 144h104zM348 30q-21 -22 -51 -34.5t-68 -12.5q-47 0 -83 20t-60 56.5t-36 86.5t-12 110t12.5 110t37 86t60 55.5t82.5 19.5q41 0 70.5 -14t46.5 -31l-51 -85q-11 12 -25.5 20t-35.5 8q-42 0 -63.5 -46.5t-21.5 -122.5t22 -122t67 -46q21 0 36 8t26 22z
" />
    <glyph glyph-name="Ccircumflex" unicode="&#x108;" horiz-adv-x="496" 
d="M483 76q-28 -42 -71.5 -68t-109.5 -26q-60 0 -108.5 28t-82 77.5t-52 117.5t-18.5 149t18.5 149.5t52.5 118t82.5 77t107.5 27.5q61 0 107 -22.5t75 -64.5l-69 -84q-41 59 -106 59q-36 0 -63 -20.5t-45 -55.5t-27 -82.5t-9 -101.5q0 -53 9 -100.5t27 -82.5t45.5 -55.5
t64.5 -20.5q35 0 60.5 18t42.5 44zM377 764l-69 93l-68 -93h-89l110 144h97l109 -144h-90z" />
    <glyph glyph-name="ccircumflex" unicode="&#x109;" horiz-adv-x="351" 
d="M299 575l-69 93l-68 -93h-89l110 144h97l109 -144h-90zM348 30q-21 -22 -51 -34.5t-68 -12.5q-47 0 -83 20t-60 56.5t-36 86.5t-12 110t12.5 110t37 86t60 55.5t82.5 19.5q41 0 70.5 -14t46.5 -31l-51 -85q-11 12 -25.5 20t-35.5 8q-42 0 -63.5 -46.5t-21.5 -122.5
t22 -122t67 -46q21 0 36 8t26 22z" />
    <glyph glyph-name="Cdotaccent" unicode="&#x10a;" horiz-adv-x="496" 
d="M483 76q-28 -42 -71.5 -68t-109.5 -26q-60 0 -108.5 28t-82 77.5t-52 117.5t-18.5 149t18.5 149.5t52.5 118t82.5 77t107.5 27.5q61 0 107 -22.5t75 -64.5l-69 -84q-41 59 -106 59q-36 0 -63 -20.5t-45 -55.5t-27 -82.5t-9 -101.5q0 -53 9 -100.5t27 -82.5t45.5 -55.5
t64.5 -20.5q35 0 60.5 18t42.5 44zM374 845q0 -30 -19 -50.5t-48 -20.5q-30 0 -48.5 20.5t-18.5 50.5t18.5 51.5t48.5 21.5q29 0 48 -21.5t19 -51.5z" />
    <glyph glyph-name="cdotaccent" unicode="&#x10b;" horiz-adv-x="351" 
d="M296 656q0 -30 -19 -50.5t-48 -20.5q-30 0 -48.5 20.5t-18.5 50.5t18.5 51.5t48.5 21.5q29 0 48 -21.5t19 -51.5zM348 30q-21 -22 -51 -34.5t-68 -12.5q-47 0 -83 20t-60 56.5t-36 86.5t-12 110t12.5 110t37 86t60 55.5t82.5 19.5q41 0 70.5 -14t46.5 -31l-51 -85
q-11 12 -25.5 20t-35.5 8q-42 0 -63.5 -46.5t-21.5 -122.5t22 -122t67 -46q21 0 36 8t26 22z" />
    <glyph glyph-name="Ccaron" unicode="&#x10c;" horiz-adv-x="496" 
d="M483 76q-28 -42 -71.5 -68t-109.5 -26q-60 0 -108.5 28t-82 77.5t-52 117.5t-18.5 149t18.5 149.5t52.5 118t82.5 77t107.5 27.5q61 0 107 -22.5t75 -64.5l-69 -84q-41 59 -106 59q-36 0 -63 -20.5t-45 -55.5t-27 -82.5t-9 -101.5q0 -53 9 -100.5t27 -82.5t45.5 -55.5
t64.5 -20.5q35 0 60.5 18t42.5 44zM356 763h-97l-109 144h89l69 -94l69 94h89z" />
    <glyph glyph-name="ccaron" unicode="&#x10d;" horiz-adv-x="351" 
d="M277 574h-97l-109 144h89l69 -94l69 94h89zM348 30q-21 -22 -51 -34.5t-68 -12.5q-47 0 -83 20t-60 56.5t-36 86.5t-12 110t12.5 110t37 86t60 55.5t82.5 19.5q41 0 70.5 -14t46.5 -31l-51 -85q-11 12 -25.5 20t-35.5 8q-42 0 -63.5 -46.5t-21.5 -122.5t22 -122t67 -46
q21 0 36 8t26 22z" />
    <glyph glyph-name="Dcaron" unicode="&#x10e;" horiz-adv-x="569" 
d="M527 353q0 -168 -70.5 -260.5t-207.5 -92.5h-177v708h178q136 0 206.5 -93.5t70.5 -261.5zM407 353q0 63 -11.5 110t-32.5 78t-50 46.5t-63 15.5h-57v-498h57q34 0 63 15.5t50 46.5t32.5 77.5t11.5 108.5zM304 763h-97l-109 144h89l69 -94l69 94h89z" />
    <glyph glyph-name="dcaron" unicode="&#x10f;" horiz-adv-x="496" 
d="M319 0v73h-2q-11 -38 -37.5 -64t-76.5 -26q-39 0 -70 21t-52 58.5t-32 88t-11 109.5q0 58 10.5 107t31.5 84.5t51.5 55.5t71.5 20q42 0 71 -23.5t40 -58.5h3v311h111v-756h-109zM321 255q0 37 -5.5 68.5t-16 55t-27 37t-37.5 13.5q-22 0 -38 -13.5t-26 -37t-15 -55
t-5 -68.5q0 -36 5 -67.5t15 -55t26 -37t38 -13.5t38 13.5t26.5 37t16 55t5.5 67.5zM544 521h-81l47 187h91z" />
    <glyph glyph-name="Dcroat" unicode="&#x110;" horiz-adv-x="569" 
d="M72 708h178q136 0 206.5 -93.5t70.5 -261.5t-70.5 -260.5t-207.5 -92.5h-177v323h-56v80h56v305zM193 105h57q34 0 63 15.5t50 46.5t32.5 77.5t11.5 108.5q0 63 -11.5 110t-32.5 78t-50 46.5t-63 15.5h-57v-200h114v-80h-114v-218z" />
    <glyph glyph-name="dcroat" unicode="&#x111;" horiz-adv-x="496" 
d="M319 0v73h-2q-11 -38 -37.5 -64t-76.5 -26q-39 0 -70 21t-52 58.5t-32 88t-11 109.5q0 58 10.5 107t31.5 84.5t51.5 55.5t71.5 20q42 0 71 -23.5t40 -58.5h3v140h-126v66h126v105h111v-105h37v-66h-37v-585h-109zM321 255q0 37 -5.5 68.5t-16 55t-27 37t-37.5 13.5
q-22 0 -38 -13.5t-26 -37t-15 -55t-5 -68.5q0 -36 5 -67.5t15 -55t26 -37t38 -13.5t38 13.5t26.5 37t16 55t5.5 67.5z" />
    <glyph glyph-name="Emacron" unicode="&#x112;" horiz-adv-x="436" 
d="M72 0v708h317v-106h-202v-188h187v-98h-187v-209h212v-107h-327zM92 802v66h274v-66h-274z" />
    <glyph glyph-name="emacron" unicode="&#x113;" horiz-adv-x="448" 
d="M101 613v66h274v-66h-274zM149 226q0 -30 6 -56.5t17.5 -46t28 -31t38.5 -11.5q31 0 49.5 20t29.5 46l83 -48q-22 -53 -62.5 -84.5t-103.5 -31.5q-89 0 -143 70t-54 201q0 61 14 111.5t40 86.5t61.5 55.5t79.5 19.5q49 0 83.5 -20t56 -54.5t31.5 -81.5t10 -102v-43h-265z
M306 308q0 57 -18 92.5t-56 35.5q-22 0 -37.5 -13t-25 -32.5t-14.5 -42t-5 -40.5h156z" />
    <glyph glyph-name="Ebreve" unicode="&#x114;" horiz-adv-x="436" 
d="M72 0v708h317v-106h-202v-188h187v-98h-187v-209h212v-107h-327zM373 902q-4 -37 -16.5 -63t-31.5 -42t-43 -23.5t-51 -7.5q-26 0 -50 7.5t-43 23.5t-31.5 42t-15.5 63h66q5 -35 27 -50.5t47 -15.5q27 0 48.5 14.5t27.5 51.5h66z" />
    <glyph glyph-name="ebreve" unicode="&#x115;" horiz-adv-x="448" 
d="M378 713q-4 -37 -16.5 -63t-31.5 -42t-43 -23.5t-51 -7.5q-26 0 -50 7.5t-43 23.5t-31.5 42t-15.5 63h66q4 -33 27 -51q21 -15 47 -15q27 0 48.5 14.5t27.5 51.5h66zM149 226q0 -30 6 -56.5t17.5 -46t28 -31t38.5 -11.5q31 0 49.5 20t29.5 46l83 -48q-22 -53 -62.5 -84.5
t-103.5 -31.5q-89 0 -143 70t-54 201q0 61 14 111.5t40 86.5t61.5 55.5t79.5 19.5q49 0 83.5 -20t56 -54.5t31.5 -81.5t10 -102v-43h-265zM306 308q0 57 -18 92.5t-56 35.5q-22 0 -37.5 -13t-25 -32.5t-14.5 -42t-5 -40.5h156z" />
    <glyph glyph-name="Edotaccent" unicode="&#x116;" horiz-adv-x="436" 
d="M72 0v708h317v-106h-202v-188h187v-98h-187v-209h212v-107h-327zM301 845q0 -30 -19 -50.5t-48 -20.5q-30 0 -48.5 20.5t-18.5 50.5t18.5 51.5t48.5 21.5q29 0 48 -21.5t19 -51.5z" />
    <glyph glyph-name="edotaccent" unicode="&#x117;" horiz-adv-x="448" 
d="M302 656q0 -30 -19 -50.5t-48 -20.5q-30 0 -48.5 20.5t-18.5 50.5t18.5 51.5t48.5 21.5q29 0 48 -21.5t19 -51.5zM149 226q0 -30 6 -56.5t17.5 -46t28 -31t38.5 -11.5q31 0 49.5 20t29.5 46l83 -48q-22 -53 -62.5 -84.5t-103.5 -31.5q-89 0 -143 70t-54 201
q0 61 14 111.5t40 86.5t61.5 55.5t79.5 19.5q49 0 83.5 -20t56 -54.5t31.5 -81.5t10 -102v-43h-265zM306 308q0 57 -18 92.5t-56 35.5q-22 0 -37.5 -13t-25 -32.5t-14.5 -42t-5 -40.5h156z" />
    <glyph glyph-name="Eogonek" unicode="&#x118;" horiz-adv-x="436" 
d="M407 -190q-20 -17 -45 -27.5t-52 -10.5q-18 0 -35.5 5t-31 15.5t-21.5 26.5t-8 39q0 22 8.5 42t21.5 37.5t29.5 33l32.5 29.5h-234v708h317v-106h-202v-188h187v-98h-187v-209h212v-107h-20q-44 -41 -64 -68t-20 -52q0 -19 10 -29t26 -10q28 0 51 21z" />
    <glyph glyph-name="eogonek" unicode="&#x119;" horiz-adv-x="448" 
d="M149 226q0 -30 6 -56.5t17.5 -46t28 -31t38.5 -11.5q31 0 49.5 20t29.5 46l83 -48q-17 -40 -44 -68t-66 -40q-39 -37 -56.5 -62t-17.5 -49q0 -19 10 -29t26 -10q28 0 51 21l25 -52q-20 -17 -45 -27.5t-52 -10.5q-18 0 -35.5 5t-31 15.5t-21.5 26.5t-8 39q0 38 22.5 69.5
t51.5 57.5q-78 10 -125 79t-47 190q0 61 14 111.5t40 86.5t61.5 55.5t79.5 19.5q49 0 83.5 -20t56 -54.5t31.5 -81.5t10 -102v-43h-265zM306 308q0 57 -18 92.5t-56 35.5q-22 0 -37.5 -13t-25 -32.5t-14.5 -42t-5 -40.5h156z" />
    <glyph glyph-name="Ecaron" unicode="&#x11a;" horiz-adv-x="436" 
d="M72 0v708h317v-106h-202v-188h187v-98h-187v-209h212v-107h-327zM280 763h-97l-109 144h89l69 -94l69 94h89z" />
    <glyph glyph-name="ecaron" unicode="&#x11b;" horiz-adv-x="448" 
d="M285 574h-97l-109 144h89l69 -94l69 94h89zM149 226q0 -30 6 -56.5t17.5 -46t28 -31t38.5 -11.5q31 0 49.5 20t29.5 46l83 -48q-22 -53 -62.5 -84.5t-103.5 -31.5q-89 0 -143 70t-54 201q0 61 14 111.5t40 86.5t61.5 55.5t79.5 19.5q49 0 83.5 -20t56 -54.5t31.5 -81.5
t10 -102v-43h-265zM306 308q0 57 -18 92.5t-56 35.5q-22 0 -37.5 -13t-25 -32.5t-14.5 -42t-5 -40.5h156z" />
    <glyph glyph-name="Gcircumflex" unicode="&#x11c;" horiz-adv-x="549" 
d="M493 43q-32 -26 -76.5 -42t-106.5 -16q-63 0 -113 26.5t-84.5 75.5t-53 117t-18.5 151q0 81 18 149t52 117.5t82 77t108 27.5q63 0 109 -22.5t75 -63.5l-69 -84q-40 58 -108 58q-37 0 -64.5 -21t-45.5 -56.5t-27 -82.5t-9 -99q0 -54 9 -101.5t27 -83t45.5 -55.5t65.5 -20
q24 0 43.5 5.5t31.5 14.5v183h-86v104h195v-359zM377 764l-69 93l-68 -93h-89l110 144h97l109 -144h-90z" />
    <glyph glyph-name="gcircumflex" unicode="&#x11d;" horiz-adv-x="493" 
d="M317 575l-69 93l-68 -93h-89l110 144h97l109 -144h-90zM426 14q0 -57 -11 -103.5t-36 -80t-64 -52t-95 -18.5q-53 0 -101 20.5t-79 54.5l61 81q22 -24 51.5 -40t64.5 -16q28 0 47 11.5t30.5 31t16.5 46t5 57.5v62h-2q-11 -34 -40.5 -57.5t-71.5 -23.5q-41 0 -72 20
t-51.5 56t-31 85t-10.5 107q0 59 11 109t32 86t51.5 56.5t70.5 20.5q49 0 75 -25.5t38 -63.5h3v72h108v-496zM319 256q0 36 -5.5 68t-16 55t-26.5 36.5t-37 13.5q-22 0 -38 -13.5t-26 -36.5t-15 -55t-5 -68t5 -68t15 -55.5t26 -37t38 -13.5q21 0 37 13.5t26.5 37t16 55.5
t5.5 68z" />
    <glyph glyph-name="Gbreve" unicode="&#x11e;" horiz-adv-x="549" 
d="M493 43q-32 -26 -76.5 -42t-106.5 -16q-63 0 -113 26.5t-84.5 75.5t-53 117t-18.5 151q0 81 18 149t52 117.5t82 77t108 27.5q63 0 109 -22.5t75 -63.5l-69 -84q-40 58 -108 58q-37 0 -64.5 -21t-45.5 -56.5t-27 -82.5t-9 -99q0 -54 9 -101.5t27 -83t45.5 -55.5t65.5 -20
q24 0 43.5 5.5t31.5 14.5v183h-86v104h195v-359zM450 902q-4 -37 -16.5 -63t-31.5 -42t-43 -23.5t-51 -7.5q-26 0 -50 7.5t-43 23.5t-31.5 42t-15.5 63h66q5 -35 27 -50.5t47 -15.5q27 0 48.5 14.5t27.5 51.5h66z" />
    <glyph glyph-name="gbreve" unicode="&#x11f;" horiz-adv-x="493" 
d="M389 713q-4 -37 -16.5 -63t-31.5 -42t-43 -23.5t-51 -7.5q-26 0 -50 7.5t-43 23.5t-31.5 42t-15.5 63h66q4 -33 27 -51q21 -15 47 -15q27 0 48.5 14.5t27.5 51.5h66zM426 14q0 -57 -11 -103.5t-36 -80t-64 -52t-95 -18.5q-53 0 -101 20.5t-79 54.5l61 81q22 -24 51.5 -40
t64.5 -16q28 0 47 11.5t30.5 31t16.5 46t5 57.5v62h-2q-11 -34 -40.5 -57.5t-71.5 -23.5q-41 0 -72 20t-51.5 56t-31 85t-10.5 107q0 59 11 109t32 86t51.5 56.5t70.5 20.5q49 0 75 -25.5t38 -63.5h3v72h108v-496zM319 256q0 36 -5.5 68t-16 55t-26.5 36.5t-37 13.5
q-22 0 -38 -13.5t-26 -36.5t-15 -55t-5 -68t5 -68t15 -55.5t26 -37t38 -13.5q21 0 37 13.5t26.5 37t16 55.5t5.5 68z" />
    <glyph glyph-name="Gdotaccent" unicode="&#x120;" horiz-adv-x="549" 
d="M493 43q-32 -26 -76.5 -42t-106.5 -16q-63 0 -113 26.5t-84.5 75.5t-53 117t-18.5 151q0 81 18 149t52 117.5t82 77t108 27.5q63 0 109 -22.5t75 -63.5l-69 -84q-40 58 -108 58q-37 0 -64.5 -21t-45.5 -56.5t-27 -82.5t-9 -99q0 -54 9 -101.5t27 -83t45.5 -55.5t65.5 -20
q24 0 43.5 5.5t31.5 14.5v183h-86v104h195v-359zM371 845q0 -30 -19 -50.5t-48 -20.5q-30 0 -48.5 20.5t-18.5 50.5t18.5 51.5t48.5 21.5q29 0 48 -21.5t19 -51.5z" />
    <glyph glyph-name="gdotaccent" unicode="&#x121;" horiz-adv-x="493" 
d="M323 656q0 -30 -19 -50.5t-48 -20.5q-30 0 -48.5 20.5t-18.5 50.5t18.5 51.5t48.5 21.5q29 0 48 -21.5t19 -51.5zM426 14q0 -57 -11 -103.5t-36 -80t-64 -52t-95 -18.5q-53 0 -101 20.5t-79 54.5l61 81q22 -24 51.5 -40t64.5 -16q28 0 47 11.5t30.5 31t16.5 46t5 57.5v62
h-2q-11 -34 -40.5 -57.5t-71.5 -23.5q-41 0 -72 20t-51.5 56t-31 85t-10.5 107q0 59 11 109t32 86t51.5 56.5t70.5 20.5q49 0 75 -25.5t38 -63.5h3v72h108v-496zM319 256q0 36 -5.5 68t-16 55t-26.5 36.5t-37 13.5q-22 0 -38 -13.5t-26 -36.5t-15 -55t-5 -68t5 -68t15 -55.5
t26 -37t38 -13.5q21 0 37 13.5t26.5 37t16 55.5t5.5 68z" />
    <glyph glyph-name="Gcommaaccent" unicode="&#x122;" horiz-adv-x="549" 
d="M493 43q-32 -26 -76.5 -42t-106.5 -16q-63 0 -113 26.5t-84.5 75.5t-53 117t-18.5 151q0 81 18 149t52 117.5t82 77t108 27.5q63 0 109 -22.5t75 -63.5l-69 -84q-40 58 -108 58q-37 0 -64.5 -21t-45.5 -56.5t-27 -82.5t-9 -99q0 -54 9 -101.5t27 -83t45.5 -55.5t65.5 -20
q24 0 43.5 5.5t31.5 14.5v183h-86v104h195v-359zM297 -232h-81l47 187h91z" />
    <glyph glyph-name="gcommaaccent" unicode="&#x123;" horiz-adv-x="493" 
d="M426 14q0 -57 -11 -103.5t-36 -80t-64 -52t-95 -18.5q-53 0 -101 20.5t-79 54.5l61 81q22 -24 51.5 -40t64.5 -16q28 0 47 11.5t30.5 31t16.5 46t5 57.5v62h-2q-11 -34 -40.5 -57.5t-71.5 -23.5q-41 0 -72 20t-51.5 56t-31 85t-10.5 107q0 59 11 109t32 86t51.5 56.5
t70.5 20.5q49 0 75 -25.5t38 -63.5h3v72h108v-496zM319 256q0 36 -5.5 68t-16 55t-26.5 36.5t-37 13.5q-22 0 -38 -13.5t-26 -36.5t-15 -55t-5 -68t5 -68t15 -55.5t26 -37t38 -13.5q21 0 37 13.5t26.5 37t16 55.5t5.5 68zM253 762h81l-47 -187h-91z" />
    <glyph glyph-name="Hcircumflex" unicode="&#x124;" horiz-adv-x="594" 
d="M403 0v314h-212v-314h-119v708h119v-287h212v287h119v-708h-119zM366 764l-69 93l-68 -93h-89l110 144h97l109 -144h-90z" />
    <glyph glyph-name="hcircumflex" unicode="&#x125;" horiz-adv-x="503" 
d="M320 796l-69 93l-68 -93h-89l110 144h97l109 -144h-90zM326 0v320q0 19 -2 38.5t-8.5 35.5t-19 25.5t-32.5 9.5q-38 0 -60.5 -38t-22.5 -96v-295h-113v756h113v-325h2q13 39 44.5 67.5t79.5 28.5q42 0 68 -17.5t40 -46.5t19 -66.5t5 -76.5v-320h-113z" />
    <glyph glyph-name="Hbar" unicode="&#x126;" horiz-adv-x="594" 
d="M403 0v314h-212v-314h-119v708h119v-132h212v132h119v-708h-119zM403 421v89h-212v-89h212z" />
    <glyph glyph-name="hbar" unicode="&#x127;" horiz-adv-x="503" 
d="M181 585v-154h2q13 39 44.5 67.5t79.5 28.5q42 0 68 -17.5t40 -46.5t19 -66.5t5 -76.5v-320h-113v320q0 19 -2 38.5t-8.5 35t-19 25t-32.5 9.5q-38 0 -60.5 -37.5t-22.5 -95.5v-295h-113v585h-54v66h54v105h113v-105h107v-66h-107z" />
    <glyph glyph-name="Itilde" unicode="&#x128;" horiz-adv-x="264" 
d="M72 0v708h120v-708h-120zM276 894q-3 -59 -24 -88.5t-56 -29.5q-17 0 -31.5 5.5t-35.5 19.5q-23 16 -33 20.5t-22 4.5q-16 0 -25 -13.5t-12 -36.5h-47q3 51 24 84.5t56 33.5q19 0 33.5 -5.5t34.5 -19.5q23 -15 33 -20t23 -5q17 0 25 12t11 38h46z" />
    <glyph glyph-name="itilde" unicode="&#x129;" horiz-adv-x="250" 
d="M268 705q-3 -59 -24 -88.5t-56 -29.5q-17 0 -31.5 5.5t-35.5 19.5q-23 16 -33 20.5t-22 4.5q-16 0 -25 -13.5t-12 -36.5h-47q3 51 24 84.5t56 33.5q19 0 33.5 -5.5t34.5 -19.5q23 -15 33 -20t23 -5q17 0 25 12t11 38h46zM68 0v510h113v-510h-113z" />
    <glyph glyph-name="Imacron" unicode="&#x12a;" horiz-adv-x="264" 
d="M72 0v708h120v-708h-120zM-6 802v66h274v-66h-274z" />
    <glyph glyph-name="imacron" unicode="&#x12b;" horiz-adv-x="250" 
d="M-12 613v66h274v-66h-274zM68 0v510h113v-510h-113z" />
    <glyph glyph-name="Iogonek" unicode="&#x12e;" horiz-adv-x="264" 
d="M213 -190q-20 -17 -45 -27.5t-52 -10.5q-18 0 -35.5 5t-31 15.5t-21.5 26.5t-8 39q0 22 8.5 42t21.5 37.5t29.5 33l32.5 29.5h-40v708h120v-708h-7q-44 -41 -64 -68t-20 -52q0 -19 10 -29t26 -10q28 0 51 21z" />
    <glyph glyph-name="iogonek" unicode="&#x12f;" horiz-adv-x="248" 
d="M202 -190q-20 -17 -45 -27.5t-52 -10.5q-18 0 -35.5 5t-31 15.5t-21.5 26.5t-8 39q0 22 8.5 42t21.5 37.5t29.5 33l32.5 29.5h-33v510h112v-510h-6q-44 -41 -64 -68t-20 -52q0 -19 10 -29t26 -10q28 0 51 21zM190 658q0 -30 -19 -50t-47 -20q-29 0 -47.5 20t-18.5 50
q0 29 18.5 50t47.5 21t47.5 -21t18.5 -50z" />
    <glyph glyph-name="Idotaccent" unicode="&#x130;" horiz-adv-x="264" 
d="M72 0v708h120v-708h-120zM200 845q0 -30 -19 -50.5t-48 -20.5q-30 0 -48.5 20.5t-18.5 50.5t18.5 51.5t48.5 21.5q29 0 48 -21.5t19 -51.5z" />
    <glyph glyph-name="dotlessi" unicode="&#x131;" horiz-adv-x="250" 
d="M68 0v510h113v-510h-113z" />
    <glyph glyph-name="IJ" unicode="&#x132;" horiz-adv-x="681" 
d="M72 0v708h120v-708h-120zM614 206q0 -106 -44.5 -165t-139.5 -59q-69 0 -114 37.5t-60 100.5l100 43q6 -26 23.5 -47.5t46.5 -21.5q41 0 55 33t14 90v491h119v-502z" />
    <glyph glyph-name="ij" unicode="&#x133;" horiz-adv-x="493" 
d="M190 658q0 -30 -19 -50t-47 -20q-29 0 -47.5 20t-18.5 50q0 29 18.5 50t47.5 21t47.5 -21t18.5 -50zM68 0v510h112v-510h-112zM435 658q0 -30 -18.5 -50t-47.5 -20t-47 20t-18 50q0 29 18 50t47 21t47.5 -21t18.5 -50zM426 -50q0 -41 -8 -75.5t-26.5 -60t-48.5 -40
t-75 -14.5q-11 0 -25 1.5t-25 4.5l8 102q7 -2 14 -3t13 -1q35 0 48 27.5t13 67.5v551h112v-560z" />
    <glyph glyph-name="Jcircumflex" unicode="&#x134;" horiz-adv-x="416" 
d="M349 206q0 -106 -44.5 -165t-139.5 -59q-69 0 -114 37.5t-60 100.5l100 43q6 -26 23.5 -47.5t46.5 -21.5q41 0 55 33t14 90v491h119v-502zM358 764l-69 93l-68 -93h-89l110 144h97l109 -144h-90z" />
    <glyph glyph-name="jcircumflex" unicode="&#x135;" horiz-adv-x="249" 
d="M182 -50q0 -41 -8 -75.5t-26.5 -60t-48.5 -40t-75 -14.5q-11 0 -25 1.5t-25 4.5l8 102q7 -2 14 -3t13 -1q35 0 48 27.5t13 67.5v551h112v-560zM196 575l-69 93l-68 -93h-89l110 144h97l109 -144h-90z" />
    <glyph glyph-name="Kcommaaccent" unicode="&#x136;" horiz-adv-x="530" 
d="M384 0l-189 344h-3v-344h-120v708h120v-307h3l180 307h135l-208 -326l221 -382h-139zM275 -232h-81l47 187h91z" />
    <glyph glyph-name="kcommaaccent" unicode="&#x137;" horiz-adv-x="453" 
d="M319 0l-135 245h-2v-245h-113v756h113v-461h2l130 215h131l-160 -235l167 -275h-133zM238 -232h-81l47 187h91z" />
    <glyph glyph-name="Lacute" unicode="&#x139;" horiz-adv-x="394" 
d="M72 0v708h121v-597h195v-111h-316zM171 764h-85l90 144h104z" />
    <glyph glyph-name="lacute" unicode="&#x13a;" horiz-adv-x="250" 
d="M153 803h-85l90 144h104zM68 0v756h114v-756h-114z" />
    <glyph glyph-name="Lcommaaccent" unicode="&#x13b;" horiz-adv-x="394" 
d="M72 0v708h121v-597h195v-111h-316zM220 -232h-81l47 187h91z" />
    <glyph glyph-name="lcommaaccent" unicode="&#x13c;" horiz-adv-x="250" 
d="M68 0v756h114v-756h-114zM118 -232h-81l47 187h91z" />
    <glyph glyph-name="Lcaron" unicode="&#x13d;" horiz-adv-x="394" 
d="M72 0v708h121v-597h195v-111h-316zM320 521h-81l47 187h91z" />
    <glyph glyph-name="lcaron" unicode="&#x13e;" horiz-adv-x="250" 
d="M68 0v756h114v-756h-114zM301 521h-81l47 187h91z" />
    <glyph glyph-name="Ldot" unicode="&#x13f;" horiz-adv-x="394" 
d="M72 0v708h121v-597h195v-111h-316zM392 356q0 -30 -19 -50.5t-48 -20.5q-30 0 -48.5 20.5t-18.5 50.5t18.5 51.5t48.5 21.5q29 0 48 -21.5t19 -51.5z" />
    <glyph glyph-name="ldot" unicode="&#x140;" horiz-adv-x="354" 
d="M68 0v756h114v-756h-114zM368 346q0 -30 -19 -50.5t-48 -20.5q-30 0 -48.5 20.5t-18.5 50.5t18.5 51.5t48.5 21.5q29 0 48 -21.5t19 -51.5z" />
    <glyph glyph-name="Lslash" unicode="&#x141;" horiz-adv-x="394" 
d="M72 0v216l-43 -43v108l43 42v385h121v-297l124 120v-107l-124 -120v-193h195v-111h-316z" />
    <glyph glyph-name="lslash" unicode="&#x142;" horiz-adv-x="250" 
d="M182 381v-381h-114v297l-42 -40v101l42 40v358h114v-275l48 47v-101z" />
    <glyph glyph-name="Nacute" unicode="&#x143;" horiz-adv-x="586" 
d="M382 0l-201 500h-3l2 -500h-108v708h137l199 -503h3l-1 503h104v-708h-132zM319 764h-85l90 144h104z" />
    <glyph glyph-name="nacute" unicode="&#x144;" horiz-adv-x="505" 
d="M275 575h-85l90 144h104zM181 510v-81h2q14 41 46.5 69.5t80.5 28.5q42 0 67.5 -17.5t39.5 -46.5t19 -66.5t5 -76.5v-320h-113v320q0 19 -2 38.5t-8.5 35.5t-19 25.5t-32.5 9.5q-38 0 -60.5 -38t-22.5 -96v-295h-113v510h111z" />
    <glyph glyph-name="Ncommaaccent" unicode="&#x145;" horiz-adv-x="586" 
d="M382 0l-201 500h-3l2 -500h-108v708h137l199 -503h3l-1 503h104v-708h-132zM286 -232h-81l47 187h91z" />
    <glyph glyph-name="ncommaaccent" unicode="&#x146;" horiz-adv-x="505" 
d="M181 510v-81h2q14 41 46.5 69.5t80.5 28.5q42 0 67.5 -17.5t39.5 -46.5t19 -66.5t5 -76.5v-320h-113v320q0 19 -2 38.5t-8.5 35.5t-19 25.5t-32.5 9.5q-38 0 -60.5 -38t-22.5 -96v-295h-113v510h111zM246 -232h-81l47 187h91z" />
    <glyph glyph-name="Ncaron" unicode="&#x147;" horiz-adv-x="586" 
d="M382 0l-201 500h-3l2 -500h-108v708h137l199 -503h3l-1 503h104v-708h-132zM344 763h-97l-109 144h89l69 -94l69 94h89z" />
    <glyph glyph-name="ncaron" unicode="&#x148;" horiz-adv-x="505" 
d="M304 574h-97l-109 144h89l69 -94l69 94h89zM181 510v-81h2q14 41 46.5 69.5t80.5 28.5q42 0 67.5 -17.5t39.5 -46.5t19 -66.5t5 -76.5v-320h-113v320q0 19 -2 38.5t-8.5 35.5t-19 25.5t-32.5 9.5q-38 0 -60.5 -38t-22.5 -96v-295h-113v510h111z" />
    <glyph glyph-name="napostrophe" unicode="&#x149;" horiz-adv-x="545" 
d="M221 510v-81h2q14 41 46.5 69.5t80.5 28.5q42 0 67.5 -17.5t39.5 -46.5t19 -66.5t5 -76.5v-320h-113v320q0 19 -2 38.5t-8.5 35.5t-19 25.5t-32.5 9.5q-38 0 -60.5 -38t-22.5 -96v-295h-113v510h111zM73 521h-81l47 187h91z" />
    <glyph glyph-name="Omacron" unicode="&#x14c;" horiz-adv-x="591" 
d="M551 355q0 -84 -17.5 -152.5t-50.5 -117.5t-80.5 -76t-106.5 -27q-60 0 -107 27t-80 76t-50.5 117.5t-17.5 152.5t17 152t50 117t80.5 75.5t107.5 26.5q59 0 106.5 -26.5t80.5 -75.5t50.5 -117t17.5 -152zM427 355q0 54 -8.5 101.5t-25 82t-41 54.5t-56.5 20
q-33 0 -57.5 -20t-41 -54.5t-24.5 -82t-8 -101.5t8 -101.5t24.5 -82.5t41 -55t57.5 -20t57.5 20t41 55t24.5 82.5t8 101.5zM160 802v66h274v-66h-274z" />
    <glyph glyph-name="omacron" unicode="&#x14d;" horiz-adv-x="468" 
d="M96 613v66h274v-66h-274zM430 254q0 -60 -13.5 -110t-39 -85.5t-61.5 -55.5t-82 -20t-82 20t-61.5 55.5t-39 85.5t-13.5 110q0 61 13.5 111.5t38.5 86.5t61.5 55.5t82.5 19.5t82 -19.5t61.5 -55.5t39 -86.5t13.5 -111.5zM318 255q0 37 -5 68.5t-15.5 55t-26 37
t-37.5 13.5t-37.5 -13.5t-25.5 -37t-15 -55t-5 -68.5q0 -36 5 -68t15 -55t25.5 -36.5t37.5 -13.5t38 13.5t26 36.5t15 55t5 68z" />
    <glyph glyph-name="Obreve" unicode="&#x14e;" horiz-adv-x="591" 
d="M551 355q0 -84 -17.5 -152.5t-50.5 -117.5t-80.5 -76t-106.5 -27q-60 0 -107 27t-80 76t-50.5 117.5t-17.5 152.5t17 152t50 117t80.5 75.5t107.5 26.5q59 0 106.5 -26.5t80.5 -75.5t50.5 -117t17.5 -152zM427 355q0 54 -8.5 101.5t-25 82t-41 54.5t-56.5 20
q-33 0 -57.5 -20t-41 -54.5t-24.5 -82t-8 -101.5t8 -101.5t24.5 -82.5t41 -55t57.5 -20t57.5 20t41 55t24.5 82.5t8 101.5zM437 902q-4 -37 -16.5 -63t-31.5 -42t-43 -23.5t-51 -7.5q-26 0 -50 7.5t-43 23.5t-31.5 42t-15.5 63h66q5 -35 27 -50.5t47 -15.5q27 0 48.5 14.5
t27.5 51.5h66z" />
    <glyph glyph-name="obreve" unicode="&#x14f;" horiz-adv-x="468" 
d="M376 713q-4 -37 -16.5 -63t-31.5 -42t-43 -23.5t-51 -7.5q-26 0 -50 7.5t-43 23.5t-31.5 42t-15.5 63h66q4 -33 27 -51q21 -15 47 -15q27 0 48.5 14.5t27.5 51.5h66zM430 254q0 -60 -13.5 -110t-39 -85.5t-61.5 -55.5t-82 -20t-82 20t-61.5 55.5t-39 85.5t-13.5 110
q0 61 13.5 111.5t38.5 86.5t61.5 55.5t82.5 19.5t82 -19.5t61.5 -55.5t39 -86.5t13.5 -111.5zM318 255q0 37 -5 68.5t-15.5 55t-26 37t-37.5 13.5t-37.5 -13.5t-25.5 -37t-15 -55t-5 -68.5q0 -36 5 -68t15 -55t25.5 -36.5t37.5 -13.5t38 13.5t26 36.5t15 55t5 68z" />
    <glyph glyph-name="Ohungarumlaut" unicode="&#x150;" horiz-adv-x="591" 
d="M551 355q0 -84 -17.5 -152.5t-50.5 -117.5t-80.5 -76t-106.5 -27q-60 0 -107 27t-80 76t-50.5 117.5t-17.5 152.5t17 152t50 117t80.5 75.5t107.5 26.5q59 0 106.5 -26.5t80.5 -75.5t50.5 -117t17.5 -152zM427 355q0 54 -8.5 101.5t-25 82t-41 54.5t-56.5 20
q-33 0 -57.5 -20t-41 -54.5t-24.5 -82t-8 -101.5t8 -101.5t24.5 -82.5t41 -55t57.5 -20t57.5 20t41 55t24.5 82.5t8 101.5zM405 764h-82l90 144h102zM261 764h-82l90 144h101z" />
    <glyph glyph-name="ohungarumlaut" unicode="&#x151;" horiz-adv-x="468" 
d="M341 575h-82l90 144h102zM197 575h-82l90 144h101zM430 254q0 -60 -13.5 -110t-39 -85.5t-61.5 -55.5t-82 -20t-82 20t-61.5 55.5t-39 85.5t-13.5 110q0 61 13.5 111.5t38.5 86.5t61.5 55.5t82.5 19.5t82 -19.5t61.5 -55.5t39 -86.5t13.5 -111.5zM318 255q0 37 -5 68.5
t-15.5 55t-26 37t-37.5 13.5t-37.5 -13.5t-25.5 -37t-15 -55t-5 -68.5q0 -36 5 -68t15 -55t25.5 -36.5t37.5 -13.5t38 13.5t26 36.5t15 55t5 68z" />
    <glyph glyph-name="OE" unicode="&#x152;" horiz-adv-x="702" 
d="M319 0q-137 0 -207.5 93.5t-70.5 261.5t70.5 260.5t207.5 92.5h336v-106h-194v-188h179v-98h-179v-209h204v-107h-346zM348 603h-29q-34 0 -63 -15.5t-50 -46.5t-33 -77.5t-12 -108.5q0 -63 12 -110t33 -78t50 -46.5t63 -15.5h29v498z" />
    <glyph glyph-name="oe" unicode="&#x153;" horiz-adv-x="725" 
d="M510 -17q-48 0 -83 23t-54 64q-19 -42 -54.5 -64.5t-83.5 -22.5q-46 0 -82.5 20t-62 55.5t-39 85.5t-13.5 110q0 61 13.5 111.5t38.5 86.5t61.5 55.5t83.5 19.5q48 0 84.5 -22t55.5 -66q17 41 52 64.5t81 23.5q49 0 83.5 -20t56 -54.5t31.5 -82t10 -102.5v-42h-265
q0 -30 6 -56.5t17.5 -46t28 -31t38.5 -11.5q31 0 49.5 20t29.5 46l83 -48q-22 -53 -62.5 -84.5t-103.5 -31.5zM318 255q0 37 -5 68.5t-15.5 55t-26 37t-37.5 13.5t-37.5 -13.5t-25.5 -37t-15 -55t-5 -68.5q0 -36 5 -68t15 -55t25.5 -36.5t37.5 -13.5t38 13.5t26 36.5t15 55
t5 68zM581 308q0 57 -18 92.5t-56 35.5q-22 0 -37.5 -13t-25 -32.5t-14.5 -42t-5 -40.5h156z" />
    <glyph glyph-name="Racute" unicode="&#x154;" horiz-adv-x="513" 
d="M365 0l-110 302h-67v-302h-116v708h202q44 0 81 -11.5t63.5 -36.5t41.5 -63t15 -91q0 -41 -10.5 -72.5t-26.5 -53.5t-35.5 -35.5t-38.5 -18.5l127 -326h-126zM357 500q0 32 -9 53t-23.5 33t-32.5 17t-36 5h-68v-218h68q44 0 72.5 27.5t28.5 82.5zM275 764h-85l90 144h104
z" />
    <glyph glyph-name="racute" unicode="&#x155;" horiz-adv-x="307" 
d="M184 575h-85l90 144h104zM183 412q13 57 41 86t66 29h8.5t8.5 -2l-6 -116q-11 3 -24 3q-22 0 -39 -13.5t-29 -35.5t-18 -50t-6 -57v-256h-115v510h111v-98h2z" />
    <glyph glyph-name="Rcommaaccent" unicode="&#x156;" horiz-adv-x="513" 
d="M365 0l-110 302h-67v-302h-116v708h202q44 0 81 -11.5t63.5 -36.5t41.5 -63t15 -91q0 -41 -10.5 -72.5t-26.5 -53.5t-35.5 -35.5t-38.5 -18.5l127 -326h-126zM357 500q0 32 -9 53t-23.5 33t-32.5 17t-36 5h-68v-218h68q44 0 72.5 27.5t28.5 82.5zM262 -232h-81l47 187h91
z" />
    <glyph glyph-name="rcommaaccent" unicode="&#x157;" horiz-adv-x="307" 
d="M183 412q13 57 41 86t66 29h8.5t8.5 -2l-6 -116q-11 3 -24 3q-22 0 -39 -13.5t-29 -35.5t-18 -50t-6 -57v-256h-115v510h111v-98h2zM120 -232h-81l47 187h91z" />
    <glyph glyph-name="Rcaron" unicode="&#x158;" horiz-adv-x="513" 
d="M365 0l-110 302h-67v-302h-116v708h202q44 0 81 -11.5t63.5 -36.5t41.5 -63t15 -91q0 -41 -10.5 -72.5t-26.5 -53.5t-35.5 -35.5t-38.5 -18.5l127 -326h-126zM357 500q0 32 -9 53t-23.5 33t-32.5 17t-36 5h-68v-218h68q44 0 72.5 27.5t28.5 82.5zM302 763h-97l-109 144
h89l69 -94l69 94h89z" />
    <glyph glyph-name="rcaron" unicode="&#x159;" horiz-adv-x="307" 
d="M234 574h-97l-109 144h89l69 -94l69 94h89zM183 412q13 57 41 86t66 29h8.5t8.5 -2l-6 -116q-11 3 -24 3q-22 0 -39 -13.5t-29 -35.5t-18 -50t-6 -57v-256h-115v510h111v-98h2z" />
    <glyph glyph-name="Sacute" unicode="&#x15a;" horiz-adv-x="449" 
d="M350 571q-39 47 -98 47q-17 0 -33 -5.5t-29 -17.5t-20.5 -31t-7.5 -45q0 -45 27 -69.5t71 -46.5q26 -13 53 -30t49 -41t36 -57t14 -78q0 -52 -16.5 -92t-44 -67.5t-64.5 -41.5t-78 -14q-59 0 -109 23t-80 58l65 88q23 -28 55.5 -44t66.5 -16q38 0 63 26t25 73
q0 46 -30 73t-76 50q-29 14 -54.5 31t-45 40.5t-31 55t-11.5 75.5q0 55 17.5 94.5t46 65.5t64.5 38.5t73 12.5q54 0 96.5 -17.5t71.5 -51.5zM264 764h-85l90 144h104z" />
    <glyph glyph-name="sacute" unicode="&#x15b;" horiz-adv-x="371" 
d="M217 575h-85l90 144h104zM285 395q-14 19 -35 31t-48 12q-25 0 -42 -17.5t-17 -46.5q0 -30 18 -43.5t57 -27.5q22 -8 43.5 -19.5t39 -29.5t28 -43.5t10.5 -60.5q0 -42 -13.5 -73.5t-36.5 -52.5t-52.5 -31t-61.5 -10q-48 0 -89.5 19t-70.5 51l61 72q18 -21 42 -36t56 -15
q28 0 44 19t16 50q0 36 -23.5 52t-62.5 30q-20 7 -39 17t-35 27t-25.5 41.5t-9.5 59.5q0 37 13.5 66t35.5 49.5t51 31t60 10.5q46 0 83 -16.5t63 -42.5z" />
    <glyph glyph-name="Scircumflex" unicode="&#x15c;" horiz-adv-x="449" 
d="M350 571q-39 47 -98 47q-17 0 -33 -5.5t-29 -17.5t-20.5 -31t-7.5 -45q0 -45 27 -69.5t71 -46.5q26 -13 53 -30t49 -41t36 -57t14 -78q0 -52 -16.5 -92t-44 -67.5t-64.5 -41.5t-78 -14q-59 0 -109 23t-80 58l65 88q23 -28 55.5 -44t66.5 -16q38 0 63 26t25 73
q0 46 -30 73t-76 50q-29 14 -54.5 31t-45 40.5t-31 55t-11.5 75.5q0 55 17.5 94.5t46 65.5t64.5 38.5t73 12.5q54 0 96.5 -17.5t71.5 -51.5zM320 764l-69 93l-68 -93h-89l110 144h97l109 -144h-90z" />
    <glyph glyph-name="scircumflex" unicode="&#x15d;" horiz-adv-x="371" 
d="M271 575l-69 93l-68 -93h-89l110 144h97l109 -144h-90zM285 395q-14 19 -35 31t-48 12q-25 0 -42 -17.5t-17 -46.5q0 -30 18 -43.5t57 -27.5q22 -8 43.5 -19.5t39 -29.5t28 -43.5t10.5 -60.5q0 -42 -13.5 -73.5t-36.5 -52.5t-52.5 -31t-61.5 -10q-48 0 -89.5 19t-70.5 51
l61 72q18 -21 42 -36t56 -15q28 0 44 19t16 50q0 36 -23.5 52t-62.5 30q-20 7 -39 17t-35 27t-25.5 41.5t-9.5 59.5q0 37 13.5 66t35.5 49.5t51 31t60 10.5q46 0 83 -16.5t63 -42.5z" />
    <glyph glyph-name="Scedilla" unicode="&#x15e;" horiz-adv-x="449" 
d="M350 571q-39 47 -98 47q-17 0 -33 -5.5t-29 -17.5t-20.5 -31t-7.5 -45q0 -45 27 -69.5t71 -46.5q26 -13 53 -30t49 -41t36 -57t14 -78t-12.5 -81t-34 -63t-50.5 -44t-63 -23l-35 -53q12 3 27 3q14 0 28.5 -4t26.5 -13t19.5 -23.5t7.5 -35.5q0 -27 -12 -45t-30 -28.5
t-40 -14.5t-41 -4q-23 0 -50.5 4.5t-48.5 15.5l20 50q16 -8 35.5 -12t36.5 -4q8 0 17 2t17 6.5t13 11.5t5 18q0 17 -13.5 24.5t-31.5 7.5q-10 0 -21.5 -2t-20.5 -6l-24 22l50 77q-52 5 -96 26.5t-71 53.5l65 88q23 -28 55.5 -44t66.5 -16q38 0 63 26t25 73q0 46 -30 73
t-76 50q-29 14 -54.5 31t-45 40.5t-31 55t-11.5 75.5q0 55 17.5 94.5t46 65.5t64.5 38.5t73 12.5q54 0 96.5 -17.5t71.5 -51.5z" />
    <glyph glyph-name="scedilla" unicode="&#x15f;" horiz-adv-x="371" 
d="M285 395q-14 19 -35 31t-48 12q-25 0 -42 -17.5t-17 -46.5q0 -30 18 -43.5t57 -27.5q22 -8 43.5 -19.5t39 -29.5t28 -43.5t10.5 -60.5q0 -71 -36 -111t-87 -51l-36 -55q12 3 27 3q14 0 28.5 -4t26.5 -13t19.5 -23.5t7.5 -35.5q0 -27 -12 -45t-30 -28.5t-40 -14.5t-41 -4
q-23 0 -50.5 4.5t-48.5 15.5l20 50q16 -8 35.5 -12t36.5 -4q8 0 17 2t17 6.5t13 11.5t5 18q0 17 -13.5 24.5t-31.5 7.5q-10 0 -21.5 -2t-20.5 -6l-24 22l50 78q-40 5 -75 22.5t-60 46.5l61 72q18 -21 42 -36t56 -15q28 0 44 19t16 50q0 36 -23.5 52t-62.5 30q-20 7 -39 17
t-35 27t-25.5 41.5t-9.5 59.5q0 37 13.5 66t35.5 49.5t51 31t60 10.5q46 0 83 -16.5t63 -42.5z" />
    <glyph glyph-name="Scaron" unicode="&#x160;" horiz-adv-x="449" 
d="M350 571q-39 47 -98 47q-17 0 -33 -5.5t-29 -17.5t-20.5 -31t-7.5 -45q0 -45 27 -69.5t71 -46.5q26 -13 53 -30t49 -41t36 -57t14 -78q0 -52 -16.5 -92t-44 -67.5t-64.5 -41.5t-78 -14q-59 0 -109 23t-80 58l65 88q23 -28 55.5 -44t66.5 -16q38 0 63 26t25 73
q0 46 -30 73t-76 50q-29 14 -54.5 31t-45 40.5t-31 55t-11.5 75.5q0 55 17.5 94.5t46 65.5t64.5 38.5t73 12.5q54 0 96.5 -17.5t71.5 -51.5zM299 763h-97l-109 144h89l69 -94l69 94h89z" />
    <glyph glyph-name="scaron" unicode="&#x161;" horiz-adv-x="371" 
d="M248 574h-97l-109 144h89l69 -94l69 94h89zM285 395q-14 19 -35 31t-48 12q-25 0 -42 -17.5t-17 -46.5q0 -30 18 -43.5t57 -27.5q22 -8 43.5 -19.5t39 -29.5t28 -43.5t10.5 -60.5q0 -42 -13.5 -73.5t-36.5 -52.5t-52.5 -31t-61.5 -10q-48 0 -89.5 19t-70.5 51l61 72
q18 -21 42 -36t56 -15q28 0 44 19t16 50q0 36 -23.5 52t-62.5 30q-20 7 -39 17t-35 27t-25.5 41.5t-9.5 59.5q0 37 13.5 66t35.5 49.5t51 31t60 10.5q46 0 83 -16.5t63 -42.5z" />
    <glyph glyph-name="Tcommaaccent" unicode="&#x162;" horiz-adv-x="380" 
d="M249 606v-606h-118v606h-133v102h384v-102h-133zM182 -232h-81l47 187h91z" />
    <glyph glyph-name="tcommaaccent" unicode="&#x163;" horiz-adv-x="284" 
d="M182 423v-262q0 -42 12.5 -61t38.5 -19q9 0 18.5 2t16.5 6l2 -88q-12 -6 -32 -10t-40 -4q-65 0 -93.5 38.5t-28.5 110.5v287h-64v87h64v130h106v-130h89v-87h-89zM164 -232h-81l47 187h91z" />
    <glyph glyph-name="Tcaron" unicode="&#x164;" horiz-adv-x="380" 
d="M249 606v-606h-118v606h-133v102h384v-102h-133zM240 763h-97l-109 144h89l69 -94l69 94h89z" />
    <glyph glyph-name="tcaron" unicode="&#x165;" horiz-adv-x="284" 
d="M182 423v-262q0 -42 12.5 -61t38.5 -19q9 0 18.5 2t16.5 6l2 -88q-12 -6 -32 -10t-40 -4q-65 0 -93.5 38.5t-28.5 110.5v287h-64v87h64v130h106v-130h89v-87h-89zM306 544h-81l47 187h91z" />
    <glyph glyph-name="Tbar" unicode="&#x166;" horiz-adv-x="380" 
d="M249 437v-437h-118v437h-76v66h76v103h-133v102h384v-102h-133v-103h80v-66h-80z" />
    <glyph glyph-name="tbar" unicode="&#x167;" horiz-adv-x="284" 
d="M182 260v-99q0 -42 12.5 -61t38.5 -19q9 0 18.5 2t16.5 6l2 -88q-12 -6 -32 -10t-40 -4q-65 0 -93.5 38.5t-28.5 110.5v124h-52v66h52v97h-64v87h64v130h106v-130h89v-87h-89v-97h74v-66h-74z" />
    <glyph glyph-name="Utilde" unicode="&#x168;" horiz-adv-x="567" 
d="M506 251q0 -56 -12 -105t-39 -85.5t-69.5 -57.5t-103.5 -21t-103 21t-68.5 57.5t-38 85.5t-11.5 105v457h120v-446q0 -33 4.5 -63.5t16 -53.5t31.5 -36.5t51 -13.5t51 13.5t31.5 36.5t16 53.5t4.5 63.5v446h119v-457zM427 894q-3 -59 -24 -88.5t-56 -29.5
q-17 0 -31.5 5.5t-35.5 19.5q-23 16 -33 20.5t-22 4.5q-16 0 -25 -13.5t-12 -36.5h-47q3 51 24 84.5t56 33.5q19 0 33.5 -5.5t34.5 -19.5q23 -15 33 -20t23 -5q17 0 25 12t11 38h46z" />
    <glyph glyph-name="utilde" unicode="&#x169;" horiz-adv-x="505" 
d="M394 705q-3 -59 -24 -88.5t-56 -29.5q-17 0 -31.5 5.5t-35.5 19.5q-23 16 -33 20.5t-22 4.5q-16 0 -25 -13.5t-12 -36.5h-47q3 51 24 84.5t56 33.5q19 0 33.5 -5.5t34.5 -19.5q23 -15 33 -20t23 -5q17 0 25 12t11 38h46zM324 0v81h-2q-14 -41 -46.5 -69.5t-80.5 -28.5
q-42 0 -67.5 17.5t-39.5 46.5t-19 66.5t-5 76.5v320h113v-320q0 -20 2 -39t8.5 -34.5t19 -25t32.5 -9.5q38 0 60.5 37.5t22.5 95.5v295h113v-510h-111z" />
    <glyph glyph-name="Umacron" unicode="&#x16a;" horiz-adv-x="567" 
d="M506 251q0 -56 -12 -105t-39 -85.5t-69.5 -57.5t-103.5 -21t-103 21t-68.5 57.5t-38 85.5t-11.5 105v457h120v-446q0 -33 4.5 -63.5t16 -53.5t31.5 -36.5t51 -13.5t51 13.5t31.5 36.5t16 53.5t4.5 63.5v446h119v-457zM147 802v66h274v-66h-274z" />
    <glyph glyph-name="umacron" unicode="&#x16b;" horiz-adv-x="505" 
d="M112 613v66h274v-66h-274zM324 0v81h-2q-14 -41 -46.5 -69.5t-80.5 -28.5q-42 0 -67.5 17.5t-39.5 46.5t-19 66.5t-5 76.5v320h113v-320q0 -20 2 -39t8.5 -34.5t19 -25t32.5 -9.5q38 0 60.5 37.5t22.5 95.5v295h113v-510h-111z" />
    <glyph glyph-name="Ubreve" unicode="&#x16c;" horiz-adv-x="567" 
d="M506 251q0 -56 -12 -105t-39 -85.5t-69.5 -57.5t-103.5 -21t-103 21t-68.5 57.5t-38 85.5t-11.5 105v457h120v-446q0 -33 4.5 -63.5t16 -53.5t31.5 -36.5t51 -13.5t51 13.5t31.5 36.5t16 53.5t4.5 63.5v446h119v-457zM425 902q-4 -37 -16.5 -63t-31.5 -42t-43 -23.5
t-51 -7.5q-26 0 -50 7.5t-43 23.5t-31.5 42t-15.5 63h66q5 -35 27 -50.5t47 -15.5q27 0 48.5 14.5t27.5 51.5h66z" />
    <glyph glyph-name="ubreve" unicode="&#x16d;" horiz-adv-x="505" 
d="M390 713q-4 -37 -16.5 -63t-31.5 -42t-43 -23.5t-51 -7.5q-26 0 -50 7.5t-43 23.5t-31.5 42t-15.5 63h66q4 -33 27 -51q21 -15 47 -15q27 0 48.5 14.5t27.5 51.5h66zM324 0v81h-2q-14 -41 -46.5 -69.5t-80.5 -28.5q-42 0 -67.5 17.5t-39.5 46.5t-19 66.5t-5 76.5v320h113
v-320q0 -20 2 -39t8.5 -34.5t19 -25t32.5 -9.5q38 0 60.5 37.5t22.5 95.5v295h113v-510h-111z" />
    <glyph glyph-name="Uring" unicode="&#x16e;" horiz-adv-x="567" 
d="M506 251q0 -56 -12 -105t-39 -85.5t-69.5 -57.5t-103.5 -21t-103 21t-68.5 57.5t-38 85.5t-11.5 105v457h120v-446q0 -33 4.5 -63.5t16 -53.5t31.5 -36.5t51 -13.5t51 13.5t31.5 36.5t16 53.5t4.5 63.5v446h119v-457zM382 853q0 -45 -27 -75.5t-71 -30.5t-70.5 30.5
t-26.5 75.5t26.5 75.5t70.5 30.5t71 -30.5t27 -75.5zM339 853q0 26 -14.5 46t-40.5 20t-40 -20t-14 -46t14 -46t40 -20t40.5 20t14.5 46z" />
    <glyph glyph-name="uring" unicode="&#x16f;" horiz-adv-x="505" 
d="M349 664q0 -45 -27 -75.5t-71 -30.5t-70.5 30.5t-26.5 75.5t26.5 75.5t70.5 30.5t71 -30.5t27 -75.5zM306 664q0 26 -14.5 46t-40.5 20t-40 -20t-14 -46t14 -46t40 -20t40.5 20t14.5 46zM324 0v81h-2q-14 -41 -46.5 -69.5t-80.5 -28.5q-42 0 -67.5 17.5t-39.5 46.5
t-19 66.5t-5 76.5v320h113v-320q0 -20 2 -39t8.5 -34.5t19 -25t32.5 -9.5q38 0 60.5 37.5t22.5 95.5v295h113v-510h-111z" />
    <glyph glyph-name="Uhungarumlaut" unicode="&#x170;" horiz-adv-x="567" 
d="M506 251q0 -56 -12 -105t-39 -85.5t-69.5 -57.5t-103.5 -21t-103 21t-68.5 57.5t-38 85.5t-11.5 105v457h120v-446q0 -33 4.5 -63.5t16 -53.5t31.5 -36.5t51 -13.5t51 13.5t31.5 36.5t16 53.5t4.5 63.5v446h119v-457zM392 764h-82l90 144h102zM248 764h-82l90 144h101z
" />
    <glyph glyph-name="uhungarumlaut" unicode="&#x171;" horiz-adv-x="505" 
d="M360 575h-82l90 144h102zM216 575h-82l90 144h101zM324 0v81h-2q-14 -41 -46.5 -69.5t-80.5 -28.5q-42 0 -67.5 17.5t-39.5 46.5t-19 66.5t-5 76.5v320h113v-320q0 -20 2 -39t8.5 -34.5t19 -25t32.5 -9.5q38 0 60.5 37.5t22.5 95.5v295h113v-510h-111z" />
    <glyph glyph-name="Uogonek" unicode="&#x172;" horiz-adv-x="567" 
d="M390 -190q-20 -17 -45 -27.5t-52 -10.5q-18 0 -35.5 5t-31 15.5t-21.5 26.5t-8 39q0 38 22 69t50 56q-57 2 -97 24t-64.5 58t-35.5 84t-11 102v457h120v-446q0 -33 4.5 -63.5t16 -53.5t31.5 -36.5t51 -13.5t51 13.5t31.5 36.5t16 53.5t4.5 63.5v446h119v-457
q0 -47 -8.5 -89t-27 -76t-47.5 -58.5t-70 -35.5q-40 -38 -57.5 -63t-17.5 -49q0 -19 10 -29t26 -10q28 0 51 21z" />
    <glyph glyph-name="uogonek" unicode="&#x173;" horiz-adv-x="505" 
d="M405 0q-44 -41 -64 -68t-20 -52q0 -19 10 -29t26 -10q28 0 51 21l25 -52q-20 -17 -45 -27.5t-52 -10.5q-18 0 -35.5 5t-31 15.5t-21.5 26.5t-8 39q0 22 8.5 42t21.5 37.5t29.5 33l32.5 29.5h-8v81h-2q-14 -41 -46.5 -69.5t-80.5 -28.5q-42 0 -67.5 17.5t-39.5 46.5
t-19 66.5t-5 76.5v320h113v-320q0 -20 2 -39t8.5 -34.5t19 -25t32.5 -9.5q38 0 60.5 37.5t22.5 95.5v295h113v-510h-30z" />
    <glyph glyph-name="Wcircumflex" unicode="&#x174;" horiz-adv-x="769" 
d="M621 0h-138l-98 532h-2l-98 -532h-138l-135 708h122l91 -550h4l95 550h126l98 -550h2l91 550h116zM454 764l-69 93l-68 -93h-89l110 144h97l109 -144h-90z" />
    <glyph glyph-name="wcircumflex" unicode="&#x175;" horiz-adv-x="635" 
d="M384 575l-69 93l-68 -93h-89l110 144h97l109 -144h-90zM509 0h-121l-73 349h-1l-73 -349h-118l-109 510h116l62 -375h2l73 375h100l75 -375h2l63 375h113z" />
    <glyph glyph-name="Ycircumflex" unicode="&#x176;" horiz-adv-x="462" 
d="M289 271v-271h-118v271l-177 437h130l106 -316l3 2l108 314h127zM299 764l-69 93l-68 -93h-89l110 144h97l109 -144h-90z" />
    <glyph glyph-name="ycircumflex" unicode="&#x177;" horiz-adv-x="427" 
d="M287 575l-69 93l-68 -93h-89l110 144h97l109 -144h-90zM264 -70q-10 -38 -23.5 -69.5t-33.5 -54t-47.5 -34.5t-64.5 -12q-20 0 -38.5 2.5t-30.5 6.5l14 102q8 -3 19.5 -5.5t22.5 -2.5q27 0 41 16.5t21 45.5l15 63l-149 522h119l89 -384h3l81 384h115z" />
    <glyph glyph-name="Ydieresis" unicode="&#x178;" horiz-adv-x="462" 
d="M289 271v-271h-118v271l-177 437h130l106 -316l3 2l108 314h127zM370 846q0 -28 -17.5 -47t-42.5 -19q-26 0 -42.5 19t-16.5 47q0 27 16.5 46t42.5 19t43 -19t17 -46zM213 846q0 -28 -17 -47t-43 -19t-42.5 19t-16.5 47q0 27 16.5 46t42.5 19t43 -19t17 -46z" />
    <glyph glyph-name="Zacute" unicode="&#x179;" horiz-adv-x="431" 
d="M25 0v99l238 503h-222v106h354v-97l-237 -503h237v-108h-370zM237 764h-85l90 144h104z" />
    <glyph glyph-name="zacute" unicode="&#x17a;" horiz-adv-x="367" 
d="M211 575h-85l90 144h104zM26 0v95l192 319h-178v96h298v-91l-192 -323h193v-96h-313z" />
    <glyph glyph-name="Zdotaccent" unicode="&#x17b;" horiz-adv-x="431" 
d="M25 0v99l238 503h-222v106h354v-97l-237 -503h237v-108h-370zM283 845q0 -30 -19 -50.5t-48 -20.5q-30 0 -48.5 20.5t-18.5 50.5t18.5 51.5t48.5 21.5q29 0 48 -21.5t19 -51.5z" />
    <glyph glyph-name="zdotaccent" unicode="&#x17c;" horiz-adv-x="367" 
d="M258 656q0 -30 -19 -50.5t-48 -20.5q-30 0 -48.5 20.5t-18.5 50.5t18.5 51.5t48.5 21.5q29 0 48 -21.5t19 -51.5zM26 0v95l192 319h-178v96h298v-91l-192 -323h193v-96h-313z" />
    <glyph glyph-name="Zcaron" unicode="&#x17d;" horiz-adv-x="431" 
d="M25 0v99l238 503h-222v106h354v-97l-237 -503h237v-108h-370zM268 763h-97l-109 144h89l69 -94l69 94h89z" />
    <glyph glyph-name="zcaron" unicode="&#x17e;" horiz-adv-x="367" 
d="M240 574h-97l-109 144h89l69 -94l69 94h89zM26 0v95l192 319h-178v96h298v-91l-192 -323h193v-96h-313z" />
    <glyph glyph-name="florin" unicode="&#x192;" 
d="M441 608q-11 7 -23.5 11t-24.5 4q-34 0 -49.5 -23t-22.5 -63l-18 -107h104v-84h-117l-56 -331q-11 -69 -46 -112.5t-105 -43.5q-20 0 -39.5 2.5t-34.5 9.5l23 95q14 -8 30 -8q34 0 46.5 27t19.5 71l47 290h-93v84h103l16 99q6 40 17.5 76t31 62t50 41.5t75.5 15.5
q31 0 56 -7t42 -17z" />
    <glyph glyph-name="Scommaaccent" unicode="&#x218;" horiz-adv-x="449" 
d="M350 571q-39 47 -98 47q-17 0 -33 -5.5t-29 -17.5t-20.5 -31t-7.5 -45q0 -45 27 -69.5t71 -46.5q26 -13 53 -30t49 -41t36 -57t14 -78q0 -52 -16.5 -92t-44 -67.5t-64.5 -41.5t-78 -14q-59 0 -109 23t-80 58l65 88q23 -28 55.5 -44t66.5 -16q38 0 63 26t25 73
q0 46 -30 73t-76 50q-29 14 -54.5 31t-45 40.5t-31 55t-11.5 75.5q0 55 17.5 94.5t46 65.5t64.5 38.5t73 12.5q54 0 96.5 -17.5t71.5 -51.5zM200 -232h-81l47 187h91z" />
    <glyph glyph-name="scommaaccent" unicode="&#x219;" horiz-adv-x="371" 
d="M285 395q-14 19 -35 31t-48 12q-25 0 -42 -17.5t-17 -46.5q0 -30 18 -43.5t57 -27.5q22 -8 43.5 -19.5t39 -29.5t28 -43.5t10.5 -60.5q0 -42 -13.5 -73.5t-36.5 -52.5t-52.5 -31t-61.5 -10q-48 0 -89.5 19t-70.5 51l61 72q18 -21 42 -36t56 -15q28 0 44 19t16 50
q0 36 -23.5 52t-62.5 30q-20 7 -39 17t-35 27t-25.5 41.5t-9.5 59.5q0 37 13.5 66t35.5 49.5t51 31t60 10.5q46 0 83 -16.5t63 -42.5zM171 -232h-81l47 187h91z" />
    <glyph glyph-name="uni021A" unicode="&#x21a;" horiz-adv-x="380" 
d="M249 606v-606h-118v606h-133v102h384v-102h-133zM182 -232h-81l47 187h91z" />
    <glyph glyph-name="uni021B" unicode="&#x21b;" horiz-adv-x="284" 
d="M182 423v-262q0 -42 12.5 -61t38.5 -19q9 0 18.5 2t16.5 6l2 -88q-12 -6 -32 -10t-40 -4q-65 0 -93.5 38.5t-28.5 110.5v287h-64v87h64v130h106v-130h89v-87h-89zM164 -232h-81l47 187h91z" />
    <glyph glyph-name="circumflex" unicode="&#x2c6;" horiz-adv-x="252" 
d="M194 575l-69 93l-68 -93h-89l110 144h97l109 -144h-90z" />
    <glyph glyph-name="caron" unicode="&#x2c7;" horiz-adv-x="252" 
d="M174 574h-97l-109 144h89l69 -94l69 94h89z" />
    <glyph glyph-name="uni02C9" unicode="&#x2c9;" horiz-adv-x="252" 
d="M-11 802v66h274v-66h-274z" />
    <glyph glyph-name="breve" unicode="&#x2d8;" horiz-adv-x="252" 
d="M267 713q-4 -37 -16.5 -63t-31.5 -42t-43 -23.5t-51 -7.5q-26 0 -50 7.5t-43 23.5t-31.5 42t-15.5 63h66q4 -33 27 -51q21 -15 47 -15q27 0 48.5 14.5t27.5 51.5h66v0z" />
    <glyph glyph-name="dotaccent" unicode="&#x2d9;" horiz-adv-x="252" 
d="M193 656q0 -30 -19 -50.5t-48 -20.5q-30 0 -48.5 20.5t-18.5 50.5t18.5 51.5t48.5 21.5q29 0 48 -21.5t19 -51.5z" />
    <glyph glyph-name="ring" unicode="&#x2da;" horiz-adv-x="252" 
d="M224 664q0 -45 -27 -75.5t-71 -30.5t-70.5 30.5t-26.5 75.5t26.5 75.5t70.5 30.5t71 -30.5t27 -75.5zM181 664q0 26 -14.5 46t-40.5 20t-40 -20t-14 -46t14 -46t40 -20t40.5 20t14.5 46z" />
    <glyph glyph-name="ogonek" unicode="&#x2db;" horiz-adv-x="252" 
d="M220 -190q-20 -17 -45 -27.5t-52 -10.5q-18 0 -35.5 5t-31 15.5t-21.5 26.5t-8 39q0 22 8.5 42t21.5 37.5t29.5 33l32.5 29.5h73q-44 -41 -64 -68t-20 -52q0 -19 10 -29t26 -10q28 0 51 21z" />
    <glyph glyph-name="tilde" unicode="&#x2dc;" horiz-adv-x="252" 
d="M268 705q-3 -59 -24 -88.5t-56 -29.5q-17 0 -31.5 5.5t-35.5 19.5q-23 16 -33 20.5t-22 4.5q-16 0 -25 -13.5t-12 -36.5h-47q3 51 24 84.5t56 33.5q19 0 33.5 -5.5t34.5 -19.5q23 -15 33 -20t23 -5q17 0 25 12t11 38h46v0z" />
    <glyph glyph-name="hungarumlaut" unicode="&#x2dd;" horiz-adv-x="252" 
d="M204 575h-82l90 144h102zM60 575h-82l90 144h101z" />
    <glyph glyph-name="uni0394" unicode="&#x394;" horiz-adv-x="685" 
d="M8 0l270 712h115l284 -712h-669zM334 581l-173 -477h358z" />
    <glyph glyph-name="uni03A9" unicode="&#x3a9;" horiz-adv-x="759" 
d="M425 0v189q38 7 67.5 26.5t49.5 47.5t30 62t10 72q0 45 -15 84.5t-42.5 69.5t-65.5 47.5t-84 17.5q-47 0 -85.5 -17.5t-66 -47.5t-42.5 -70t-15 -85q0 -78 38.5 -132.5t115.5 -74.5v-189h-274v106h172v32q-45 14 -77.5 40t-53.5 61t-31 77t-10 88q0 69 25.5 127.5
t70 100.5t104 65.5t127.5 23.5t128 -23t104.5 -64t70 -99t25.5 -128q0 -47 -9.5 -89.5t-30.5 -78t-54 -61.5t-79 -40v-32h173v-106h-276z" />
    <glyph glyph-name="uni03BC" unicode="&#x3bc;" horiz-adv-x="574" 
d="M188 480v-243q0 -20 2 -44.5t10.5 -46t26 -36t49.5 -14.5q30 0 50.5 10t34 27t19.5 39t6 46v262h120v-480h-114v77h-2q-8 -18 -19.5 -34t-28 -28.5t-38.5 -19.5t-51 -7q-18 0 -36.5 6t-28.5 18v-240h-120v708h120z" />
    <glyph glyph-name="pi" unicode="&#x3c0;" horiz-adv-x="593" 
d="M580 13q-21 -10 -46.5 -15t-48.5 -5q-33 0 -53.5 10t-32 27.5t-15 41.5t-3.5 52v254h-183v-378h-117v378h-70v102h566v-102h-79v-237q0 -11 0.5 -21t4.5 -18.5t11.5 -13.5t21.5 -5q21 0 44 10v-80v0z" />
    <glyph glyph-name="endash" unicode="&#x2013;" horiz-adv-x="360" 
d="M24 226v87h312v-87h-312z" />
    <glyph glyph-name="emdash" unicode="&#x2014;" horiz-adv-x="460" 
d="M24 226v87h412v-87h-412z" />
    <glyph glyph-name="quoteleft" unicode="&#x2018;" horiz-adv-x="210" 
d="M128 460h-92l58 248h80z" />
    <glyph glyph-name="quoteright" unicode="&#x2019;" horiz-adv-x="210" 
d="M83 708h91l-58 -248h-80z" />
    <glyph glyph-name="quotesinglbase" unicode="&#x201a;" horiz-adv-x="210" 
d="M117 -122h-81l47 248h91z" />
    <glyph glyph-name="quotedblleft" unicode="&#x201c;" horiz-adv-x="360" 
d="M277 460h-91l57 248h81zM128 460h-92l58 248h80z" />
    <glyph glyph-name="quotedblright" unicode="&#x201d;" horiz-adv-x="360" 
d="M83 708h91l-57 -248h-81zM232 708h92l-58 -248h-80z" />
    <glyph glyph-name="quotedblbase" unicode="&#x201e;" horiz-adv-x="360" 
d="M83 126h91l-57 -248h-81zM232 126h92l-58 -248h-80z" />
    <glyph glyph-name="dagger" unicode="&#x2020;" horiz-adv-x="405" 
d="M252 410v-539h-98v539h-139v96h139v202h98v-202h140v-96h-140z" />
    <glyph glyph-name="daggerdbl" unicode="&#x2021;" horiz-adv-x="405" 
d="M253 58v-187h-99v187h-139v93h139v277h-139v92h139v188h98v-188h140v-92h-140v-277h140v-93h-139z" />
    <glyph glyph-name="bullet" unicode="&#x2022;" 
d="M73 354q0 37 14 69t38 56t56 38t69 14t69 -14t56 -38t38 -56t14 -69t-14 -69t-38 -56t-56 -38t-69 -14t-69 14t-56 38t-38 56t-14 69z" />
    <glyph glyph-name="ellipsis" unicode="&#x2026;" horiz-adv-x="900" 
d="M219 65q0 -31 -19.5 -52t-49.5 -21t-49 21t-19 52q0 30 19 52t49 22t49.5 -22t19.5 -52zM819 65q0 -31 -19.5 -52t-49.5 -21t-49 21t-19 52q0 30 19 52t49 22t49.5 -22t19.5 -52zM519 65q0 -31 -19.5 -52t-49.5 -21t-49 21t-19 52q0 30 19 52t49 22t49.5 -22t19.5 -52z
" />
    <glyph glyph-name="perthousand" unicode="&#x2030;" horiz-adv-x="949" 
d="M300 540q0 -38 -9 -70.5t-26 -56t-42 -37t-57 -13.5q-31 0 -55.5 13.5t-41.5 37t-26 56t-9 70.5q0 39 9 72t26 57t41.5 37.5t55.5 13.5q32 0 57 -13.5t42 -37.5t26 -57t9 -72zM219 541q0 45 -13.5 75t-39.5 30q-25 0 -38 -30t-13 -75q0 -43 13 -73.5t38 -30.5
q26 0 39.5 30.5t13.5 73.5zM610 165q0 -38 -9 -70.5t-26 -56t-42 -37t-57 -13.5q-31 0 -55.5 13.5t-41.5 37t-26 56t-9 70.5q0 39 9 72t26 57t41.5 37.5t55.5 13.5q32 0 57 -13.5t42 -37.5t26 -57t9 -72zM529 166q0 45 -13.5 75t-39.5 30q-25 0 -38 -30t-13 -75
q0 -43 13 -73.5t38 -30.5q26 0 39.5 30.5t13.5 73.5zM912 165q0 -38 -9 -70.5t-26 -56t-42 -37t-57 -13.5q-31 0 -55.5 13.5t-41.5 37t-26 56t-9 70.5q0 39 9 72t26 57t41.5 37.5t55.5 13.5q32 0 57 -13.5t42 -37.5t26 -57t9 -72zM831 166q0 45 -13.5 75t-39.5 30
q-25 0 -38 -30t-13 -75q0 -43 13 -73.5t38 -30.5q26 0 39.5 30.5t13.5 73.5zM207 -22l-60 22l292 737l59 -22z" />
    <glyph glyph-name="guilsinglleft" unicode="&#x2039;" horiz-adv-x="240" 
d="M141 479l64 -34l-88 -189l88 -188l-64 -35l-106 223z" />
    <glyph glyph-name="guilsinglright" unicode="&#x203a;" horiz-adv-x="240" 
d="M99 33l-64 35l88 188l-88 189l64 34l106 -223z" />
    <glyph glyph-name="fraction" unicode="&#x2044;" horiz-adv-x="100" 
d="M-58 -21l-63 19l278 738l63 -20z" />
    <glyph glyph-name="Euro" unicode="&#x20ac;" 
d="M451 613q-14 7 -36.5 11.5t-48.5 4.5q-57 0 -96 -39t-53 -114h207l-20 -76h-203q-2 -11 -2.5 -23.5t-0.5 -23.5q0 -10 0.5 -21.5t1.5 -21.5h190l-18 -76h-161q11 -71 51.5 -111t96.5 -40q29 0 53 7t41 16l15 -97q-16 -9 -46.5 -18t-75.5 -9q-52 0 -94 18.5t-74 51.5
t-53 79.5t-30 102.5h-71l18 76h46q-1 10 -1 21.5v21.5v23t2 24h-63l18 76h53q26 125 95 187.5t170 62.5q32 0 63.5 -6.5t50.5 -14.5l-25 -92v0z" />
    <glyph glyph-name="afii61289" unicode="&#x2113;" 
d="M440 48q-71 -62 -155 -62q-70 0 -110 37.5t-40 101.5v70l-57 -53h-2l-39 60l97 85v246q0 42 12 76.5t34 59t51 38.5t64 14q61 0 97.5 -38.5t36.5 -103.5q0 -76 -45.5 -151t-137.5 -159v-126q0 -22 6 -36.5t15.5 -23t21 -12t23.5 -3.5q41 0 88 38h2zM338 572q0 32 -12 53
t-32 21t-34 -23.5t-14 -68.5v-190q48 52 70 105.5t22 102.5z" />
    <glyph glyph-name="trademark" unicode="&#x2122;" horiz-adv-x="760" 
d="M624 296v326h-1l-89 -326h-60l-85 326h-2v-326h-68v412h115l73 -283l74 283h116v-412h-73zM198 639v-343h-80v343h-78v69h235v-69h-77z" />
    <glyph glyph-name="Omega" unicode="&#x2126;" horiz-adv-x="759" 
d="M425 0v189q38 7 67.5 26.5t49.5 47.5t30 62t10 72q0 45 -15 84.5t-42.5 69.5t-65.5 47.5t-84 17.5q-47 0 -85.5 -17.5t-66 -47.5t-42.5 -70t-15 -85q0 -78 38.5 -132.5t115.5 -74.5v-189h-274v106h172v32q-45 14 -77.5 40t-53.5 61t-31 77t-10 88q0 69 25.5 127.5
t70 100.5t104 65.5t127.5 23.5t128 -23t104.5 -64t70 -99t25.5 -128q0 -47 -9.5 -89.5t-30.5 -78t-54 -61.5t-79 -40v-32h173v-106h-276z" />
    <glyph glyph-name="estimated" unicode="&#x212e;" horiz-adv-x="800" 
d="M595 402v193q-82 79 -194 79t-191 -79v-193h385zM210 355v-240q76 -78 192 -78q83 0 144 37.5t112 121.5l46 -28q-30 -48 -61.5 -82t-67.5 -55.5t-78.5 -32t-94.5 -10.5q-78 0 -141 28.5t-108 78.5t-69 116.5t-24 143.5t24 143.5t69 116t108 77.5t141 28q76 0 139.5 -27
t108.5 -75.5t70 -115.5t25 -147h-535z" />
    <glyph glyph-name="partialdiff" unicode="&#x2202;" horiz-adv-x="556" 
d="M514 358q0 -64 -10.5 -130t-38.5 -119.5t-77.5 -87.5t-128.5 -34q-50 0 -90 17.5t-69 48t-44.5 72t-15.5 90.5q0 48 15.5 88.5t44 70t68.5 46t88 16.5q42 0 76.5 -14.5t66.5 -40.5v28q1 36 -6 75.5t-24.5 72.5t-47 55t-73.5 22q-35 0 -65 -13.5t-57 -35.5l-59 70
q42 32 81.5 49t93.5 17q78 0 130 -32t83.5 -84t45 -116.5t13.5 -130.5zM397 289q-26 29 -55.5 46.5t-70.5 17.5q-31 0 -54 -12t-38 -31.5t-22.5 -46t-7.5 -54.5q0 -27 6.5 -52t20.5 -44t35.5 -30.5t51.5 -11.5q36 0 61.5 19t42 47.5t24.5 62.5t7 64z" />
    <glyph glyph-name="Delta" unicode="&#x2206;" horiz-adv-x="685" 
d="M8 0l270 712h115l284 -712h-669zM334 581l-173 -477h358z" />
    <glyph glyph-name="product" unicode="&#x220f;" horiz-adv-x="741" 
d="M565 -214v897h-389v-897h-114v1000h617v-1000h-114z" />
    <glyph glyph-name="summation" unicode="&#x2211;" horiz-adv-x="648" 
d="M25 -214v89l303 417l-290 405v89h573v-103h-422l275 -390l-293 -404h453v-103h-599z" />
    <glyph glyph-name="minus" unicode="&#x2212;" horiz-adv-x="666" 
d="M604 354v-102h-542v102h542z" />
    <glyph glyph-name="uni2215" unicode="&#x2215;" horiz-adv-x="100" 
d="M-58 -21l-63 19l278 738l63 -20z" />
    <glyph glyph-name="uni2219" unicode="&#x2219;" horiz-adv-x="245" 
d="M191 263q0 -31 -19.5 -52t-49.5 -21t-49 21t-19 52q0 30 19 52t49 22t49.5 -22t19.5 -52z" />
    <glyph glyph-name="radical" unicode="&#x221a;" horiz-adv-x="537" 
d="M338 -214h-106l-152 317l-51 -25l-41 90l148 68l129 -273l168 823h116z" />
    <glyph glyph-name="infinity" unicode="&#x221e;" horiz-adv-x="815" 
d="M770 263q0 -38 -11.5 -71t-33.5 -58t-53 -39t-71 -14q-31 0 -58 9.5t-50.5 25t-44.5 35.5t-40 42l-41.5 -42t-43 -35.5t-49 -24.5t-58.5 -9q-39 0 -71 14t-54 38t-34 57t-12 71q0 37 11.5 70t33 57t52.5 38t70 14q33 0 60 -10t51 -26.5t44.5 -38l40.5 -44.5
q19 23 39.5 44.5t44 38.5t51 27t59.5 10q39 0 70 -14t53 -38t33.5 -57t11.5 -70zM680 260q0 36 -21 61t-59 25q-20 0 -38.5 -8.5t-36 -21.5t-33 -28.5l-27.5 -28.5q13 -15 28.5 -29.5t32.5 -26t36.5 -19t40.5 -7.5q37 0 57 24t20 59zM350 259q-12 13 -28 28t-34 28
t-37.5 21.5t-38.5 8.5q-35 0 -56 -25.5t-21 -59.5q0 -37 21.5 -59.5t58.5 -22.5q19 0 38 7.5t36.5 19.5t33 26t27.5 28z" />
    <glyph glyph-name="integral" unicode="&#x222b;" horiz-adv-x="611" 
d="M486 709q0 -23 -14.5 -37.5t-37.5 -14.5q-24 0 -34.5 11.5t-16 25l-10 25t-15.5 11.5t-13.5 -9t-2.5 -17q0 -31 2 -61t2 -61v-589q0 -38 -5 -75t-20 -66.5t-43.5 -48t-75.5 -18.5q-18 0 -37.5 4t-36 13t-27 23.5t-10.5 35.5q0 23 15 38t38 15q24 0 34.5 -11.5t16 -25
t9.5 -25t14 -11.5q8 0 11.5 5.5t5 13t1 15t-0.5 12.5q0 26 -2 51t-2 51v506q0 28 -0.5 60.5t1.5 65t9.5 62.5t23.5 53t43 36.5t68 13.5q17 0 36.5 -4.5t36 -13.5t27 -23.5t10.5 -35.5z" />
    <glyph glyph-name="approxequal" unicode="&#x2248;" horiz-adv-x="666" 
d="M602 451q-3 -33 -12.5 -64t-27.5 -55t-44.5 -38.5t-64.5 -14.5q-30 0 -65.5 10.5t-70.5 24.5l-66 23.5t-51 10.5q-28 0 -43.5 -22.5t-20.5 -46.5h-71q3 32 12.5 62.5t27.5 55.5q17 25 43.5 40t62.5 15q32 0 64.5 -10t65.5 -23q33 -12 65.5 -22.5t62.5 -10.5q28 0 42.5 20
t19.5 45h71zM600 243q-3 -33 -12.5 -64t-27 -55t-44 -38.5t-64.5 -14.5q-29 0 -65 10.5t-71 24.5l-66 23.5t-52 10.5q-28 0 -43.5 -22t-20.5 -46h-71q3 31 12.5 62t27 55.5t44 39.5t62.5 15q32 0 64.5 -10t65.5 -23q33 -12 65.5 -22.5t62.5 -10.5q28 0 42.5 20t19.5 45h71z
" />
    <glyph glyph-name="notequal" unicode="&#x2260;" horiz-adv-x="666" 
d="M322 162l-74 -144l-88 45l50 99h-130v102h181l38 78h-219v102h270l72 143l90 -44l-51 -99h125v-102h-176l-38 -78h214v-102h-264z" />
    <glyph glyph-name="lessequal" unicode="&#x2264;" horiz-adv-x="666" 
d="M80 314v108l506 177v-113l-359 -118l359 -112v-112zM80 4v107h506v-107h-506z" />
    <glyph glyph-name="greaterequal" unicode="&#x2265;" horiz-adv-x="666" 
d="M80 256l359 112l-359 118v113l506 -177v-108l-506 -170v112zM80 111h506v-107h-506v107z" />
    <glyph glyph-name="lozenge" unicode="&#x25ca;" horiz-adv-x="593" 
d="M346 -35h-100l-177 391l177 391h100l178 -391zM296 641l-118 -285l118 -286l119 286z" />
    <glyph glyph-name="dotlessj" unicode="&#xf6be;" horiz-adv-x="249" 
d="M182 -50q0 -41 -8 -75.5t-26.5 -60t-48.5 -40t-75 -14.5q-11 0 -25 1.5t-25 4.5l8 102q7 -2 14 -3t13 -1q35 0 48 27.5t13 67.5v551h112v-560v0z" />
    <glyph glyph-name="commaaccent" unicode="&#xf6c3;" horiz-adv-x="252" 
d="M125 -232h-81l47 187h91z" />
    <glyph glyph-name="uniF8FF" unicode="&#xf8ff;" horiz-adv-x="512" 
d="M222 117v67h56v-67h-56zM225 234l-2 17q0 56 13 81q7 13 18 27.5t28 31.5q16 15 26 26.5t15 21t7 18t2 17.5q0 36 -22.5 60.5t-53.5 24.5t-53.5 -22t-28.5 -73l-50 8q7 72 44 104.5t91 32.5t89 -35.5t35 -95.5q0 -32 -12.5 -58.5t-50.5 -61.5q-37 -33 -43 -52
q-6 -20 -6 -72h-46zM462 50v617h-412v-617h412zM512 718v-718h-512v718h512z" />
    <glyph glyph-name="fi" unicode="&#xfb01;" horiz-adv-x="519" 
d="M278 677q-13 5 -30 5q-19 0 -31 -8.5t-19 -22.5t-10 -32t-3 -37v-72h81v-90h-80v-420h-111v420h-64v90h64v73q0 40 8.5 75.5t27 62t48 41.5t72.5 15q28 0 54 -8zM339 0v510h112v-510h-112zM461 658q0 -30 -19 -50t-47 -20q-29 0 -47.5 20t-18.5 50q0 29 18.5 50t47.5 21
t47.5 -21t18.5 -50z" />
    <glyph glyph-name="fl" unicode="&#xfb02;" horiz-adv-x="520" 
d="M278 677q-13 5 -30 5q-19 0 -31 -8.5t-19 -22.5t-10 -32t-3 -37v-72h81v-90h-80v-420h-111v420h-64v90h64v73q0 40 8.5 75.5t27 62t48 41.5t72.5 15q28 0 54 -8zM338 0v756h114v-756h-114z" />
    </font>
</defs>
</svg>
